<?xml version="1.0" standalone="no"?>
<!DOCTYPE svg PUBLIC "-//W3C//DTD SVG 1.1//EN" "http://www.w3.org/Graphics/SVG/1.1/DTD/svg11.dtd" >
<svg xmlns="http://www.w3.org/2000/svg" xmlns:xlink="http://www.w3.org/1999/xlink" version="1.1">
<metadata></metadata>
<defs>
<font id="pf_dintext_probold" horiz-adv-x="1126" >
<font-face units-per-em="2048" ascent="1536" descent="-512" />
<missing-glyph horiz-adv-x="573" />
<glyph unicode="&#xfb01;" horiz-adv-x="1175" d="M41 786v226h115v123q0 98 34.5 172t96 118t140 66t173.5 22q260 0 401 -149l-161 -195q-91 91 -232 91q-50 0 -85 -15t-50 -39t-21 -44.5t-6 -41.5v-108h584v-1012h-293v786h-291v-786h-290v786h-115z" />
<glyph unicode="&#xfb02;" horiz-adv-x="1214" d="M41 786v226h115v110q0 98 31.5 172t89 118.5t133.5 66.5t170 22q220 0 464 -84v-1061q0 -62 23.5 -82t69.5 -20h32v-254h-104q-67 0 -119.5 13.5t-98 45.5t-70.5 93.5t-25 148.5v924q-75 22 -144 22q-41 0 -71.5 -10.5t-47.5 -25.5t-27 -35t-13 -36t-3 -32v-96h201v-226 h-201v-786h-290v786h-115z" />
<glyph unicode="&#xfb03;" horiz-adv-x="1738" d="M41 786v226h115v82q0 98 34.5 172t96 118.5t140 66.5t173.5 22q153 0 266 -54q119 94 320 94q260 0 401 -149l-162 -195q-91 91 -231 91q-50 0 -85 -15t-50 -39t-21 -44.5t-6 -41.5v-108h584v-1012h-293v786h-291v-786h-291v786h-295v-786h-290v786h-115zM446 1012h295 v123q0 39 2 57q-66 27 -135 27q-50 0 -85 -15t-50 -39t-21 -44.5t-6 -41.5v-67z" />
<glyph unicode="&#xfb04;" horiz-adv-x="1738" d="M41 786v226h115v82q0 98 34.5 172t96 118.5t140 66.5t173.5 22q153 0 266 -54q119 94 320 94q211 -5 436 -83v-1074q0 -62 23 -82t69 -20h33v-254h-105q-67 0 -119.5 13.5t-98 45.5t-70.5 93.5t-25 148.5v936q-78 23 -135 23q-50 0 -85 -15t-50 -39t-21 -44.5t-6 -41.5 v-108h187v-226h-187v-786h-291v786h-295v-786h-290v786h-115zM446 1012h295q0 162 2 180q-66 27 -135 27q-50 0 -85 -15t-50 -39t-21 -44.5t-6 -41.5v-67z" />
<glyph horiz-adv-x="0" />
<glyph horiz-adv-x="682" />
<glyph unicode=" "  horiz-adv-x="573" />
<glyph unicode="&#x09;" horiz-adv-x="573" />
<glyph unicode="&#xa0;" horiz-adv-x="573" />
<glyph unicode="!" horiz-adv-x="602" d="M152 0v262h301v-262h-301zM154 1425h295l-21 -1034h-252z" />
<glyph unicode="&#x22;" horiz-adv-x="837" d="M111 961v464h251v-464h-251zM457 961v464h254v-464h-254z" />
<glyph unicode="#" horiz-adv-x="1212" d="M47 416v200h207l29 195h-179v203h209l62 411h241l-59 -411h174l62 411h241l-59 -411h186v-203h-215l-31 -195h189v-200h-217l-60 -416h-247l61 416h-170l-61 -416h-250l61 416h-174zM498 616h174l30 195h-174z" />
<glyph unicode="$" d="M35 207l176 225q82 -68 150.5 -102t144.5 -41v282q-69 26 -122 50.5t-110 62.5t-93.5 81t-60.5 104t-24 132q0 177 112 294.5t298 136.5v137h112v-135q226 -9 433 -152l-156 -260q-89 58 -151 85.5t-126 33.5v-269q238 -79 356 -182.5t118 -267.5q0 -98 -36 -177.5 t-100 -133t-150 -84t-188 -35.5v-209h-112v211q-129 8 -243 58t-228 155zM414 1026q0 -58 92 -108v217q-92 -24 -92 -109zM618 291q119 20 119 106q0 52 -29 83.5t-90 56.5v-246z" />
<glyph unicode="%" horiz-adv-x="1894" d="M152 827v340q0 120 90.5 192.5t212.5 72.5q125 0 216 -72t91 -193v-340q0 -119 -91 -190.5t-216 -71.5q-122 0 -212.5 71.5t-90.5 190.5zM377 829q0 -36 21.5 -54.5t56.5 -18.5q37 0 58.5 18.5t21.5 54.5v338q0 37 -21.5 56.5t-58.5 19.5q-35 0 -56.5 -19.5t-21.5 -56.5 v-338zM391 -35l871 1495h241l-872 -1495h-240zM1130 256v340q0 120 90.5 192t213.5 72q125 0 216 -71.5t91 -192.5v-340q0 -119 -91 -190.5t-216 -71.5q-123 0 -213.5 71.5t-90.5 190.5zM1356 258q0 -36 21.5 -55t56.5 -19q36 0 57.5 19t21.5 55v338q0 37 -21.5 56.5 t-57.5 19.5q-35 0 -56.5 -19.5t-21.5 -56.5v-338z" />
<glyph unicode="&#x26;" horiz-adv-x="1355" d="M133 373q0 127 58 229.5t182 192.5l-27 32q-94 116 -94 252q0 166 98 261.5t293 95.5q235 0 399 -142l-157 -217q-72 61 -127 81t-117 20q-50 0 -83.5 -28.5t-33.5 -68.5q0 -33 10 -55.5t41 -62.5l324 -426q34 76 51 194l258 -67q-18 -94 -53.5 -190.5t-79.5 -164.5 l248 -309h-338l-88 117q-154 -129 -338 -129q-107 0 -190.5 31.5t-134 86t-76 122.5t-25.5 145zM401 383q0 -59 42.5 -97t119.5 -38q89 0 176 69l-213 275q-125 -93 -125 -209z" />
<glyph unicode="'" horiz-adv-x="532" d="M139 961v464h252v-464h-252z" />
<glyph unicode="(" horiz-adv-x="763" d="M129 625q0 455 414 907l176 -113q-139 -183 -210 -390t-71 -394q0 -197 74 -406t209 -391l-170 -129q-189 205 -305.5 440.5t-116.5 475.5z" />
<glyph unicode=")" horiz-adv-x="763" d="M106 -162q136 181 209.5 390t73.5 407q0 189 -70 395.5t-210 388.5l176 113q413 -447 413 -907q0 -240 -115.5 -476t-303.5 -440z" />
<glyph unicode="*" horiz-adv-x="950" d="M104 1063l66 209l227 -94l-26 243h231l-29 -243l226 94l65 -209l-237 -53l164 -183l-187 -133l-121 211l-129 -211l-184 133l168 183z" />
<glyph unicode="+" d="M39 492v237h397v375h254v-375h397v-237h-397v-381h-254v381h-397z" />
<glyph unicode="," horiz-adv-x="612" d="M129 -309l78 307h-74v340h346v-324l-200 -323h-150z" />
<glyph unicode="-" horiz-adv-x="901" d="M96 393v269h709v-269h-709z" />
<glyph unicode="." horiz-adv-x="608" d="M131 0v338h346v-338h-346z" />
<glyph unicode="/" horiz-adv-x="753" d="M-33 -86l518 1571h246l-520 -1571h-244z" />
<glyph unicode="0" d="M131 418v588q0 99 38 182t101 136.5t144 82.5t168 29q89 0 170.5 -29t145 -82.5t101 -136t37.5 -182.5v-588q0 -131 -65 -230.5t-167 -148.5t-222 -49q-87 0 -168 29t-144 82.5t-101 135.5t-38 181zM432 420q0 -78 40 -118t110 -40t110.5 40.5t40.5 117.5v586 q0 77 -40.5 117t-110.5 40t-110 -40t-40 -117v-586z" />
<glyph unicode="1" d="M305 940v315l246 170h268v-1425h-301v1087z" />
<glyph unicode="2" d="M106 0v252l570 653q39 45 39 103q0 59 -40.5 102t-107.5 43q-64 0 -107 -44t-54 -138l-295 49q21 188 149 302t301 114q99 0 182 -25.5t145 -75t97 -127.5t35 -178q0 -78 -26.5 -154t-73.5 -131l-406 -462h504v-283h-912z" />
<glyph unicode="3" d="M92 365l291 41q12 -66 59 -100t113 -34q69 0 117.5 45t48.5 121q0 81 -48 129.5t-143 48.5h-122v236h127q92 0 136 44t44 110q0 62 -46.5 104.5t-113.5 42.5q-54 0 -99 -35t-57 -114l-288 51q36 177 164 279t292 102q118 0 209.5 -33t147 -91t84 -131t28.5 -157 q0 -77 -53 -165t-137 -124q96 -40 147 -127t51 -174q0 -197 -132.5 -320.5t-348.5 -123.5q-78 0 -151 21t-138.5 64.5t-113.5 117.5t-68 172z" />
<glyph unicode="4" d="M57 199v235l494 991h336l-481 -954h258v373h301v-373h114v-272h-114v-199h-301v199h-607z" />
<glyph unicode="5" d="M121 362l297 56q20 -146 157 -146q162 0 162 240q0 219 -162 219q-40 0 -81 -29t-68 -90h-274v813h847v-276h-559v-221q39 33 100 51t115 18q105 0 181.5 -33t121 -95.5t66 -141.5t25.5 -182q0 -262 -118 -408.5t-347 -146.5q-61 0 -116 9.5t-113.5 35t-104 66 t-80.5 107.5t-49 154z" />
<glyph unicode="6" d="M123 440q0 136 57 244l395 741h338l-297 -559l2 -4q193 20 308.5 -95t115.5 -306q0 -120 -41 -213.5t-110 -148t-151 -82t-173 -27.5q-85 0 -164 30t-141.5 85t-100.5 142.5t-38 192.5zM424 444q0 -87 41 -129.5t113 -42.5q60 0 107.5 43.5t47.5 128.5q0 86 -43.5 130 t-111.5 44q-66 0 -110 -44t-44 -130z" />
<glyph unicode="7" d="M109 950v475h907v-251l-512 -1174h-318l482 1143h-258v-193h-301z" />
<glyph unicode="8" d="M102 428q0 96 48 182.5t141 122.5v10q-78 32 -119 109t-41 164q0 180 129 300t324 120q221 0 337.5 -116t116.5 -304q0 -86 -41.5 -159.5t-122.5 -113.5v-8q91 -33 141 -122t50 -185q0 -193 -140.5 -315.5t-340.5 -122.5q-130 0 -239.5 53.5t-176 155t-66.5 229.5z M403 438q0 -72 50.5 -123t130.5 -51q81 0 130.5 50.5t49.5 123.5q0 69 -53 116.5t-127 47.5q-73 0 -127 -48t-54 -116zM430 1008q0 -68 44.5 -106t109.5 -38q64 0 109.5 40t45.5 104q0 69 -41.5 114t-113.5 45q-71 0 -112.5 -43t-41.5 -116z" />
<glyph unicode="9" d="M123 965q0 97 27 177t72.5 133.5t106.5 90.5t128 53.5t139 16.5q85 0 164.5 -30t142.5 -85.5t101 -143t38 -192.5q0 -138 -59 -244l-395 -741h-338l297 559l-2 4q-97 -10 -177 16.5t-133.5 81.5t-82.5 133t-29 171zM426 981q0 -86 43.5 -130t110.5 -44q66 0 110.5 44 t44.5 130q0 87 -41.5 129.5t-113.5 42.5q-59 0 -106.5 -43.5t-47.5 -128.5z" />
<glyph unicode=":" horiz-adv-x="620" d="M137 0v338h346v-338h-346zM137 549v338h346v-338h-346z" />
<glyph unicode=";" horiz-adv-x="620" d="M133 -309l78 307h-74v340h346v-324l-200 -323h-150zM137 549v338h346v-338h-346z" />
<glyph unicode="&#x3c;" d="M37 496v229l1046 457v-269l-723 -305l723 -305v-268z" />
<glyph unicode="=" d="M37 262v227h1053v-227h-1053zM37 731v227h1053v-227h-1053z" />
<glyph unicode="&#x3e;" d="M39 35v268l723 305l-723 305v269l1046 -457v-229z" />
<glyph unicode="?" horiz-adv-x="1069" d="M68 1006q10 100 53.5 182.5t109 136t145.5 82.5t165 29q208 0 329 -114t121 -292q0 -72 -31.5 -136.5t-76.5 -114t-89.5 -98.5t-76 -110.5t-31.5 -128.5v-45h-301v56q0 112 38.5 193.5t147.5 223.5q28 34 40.5 51t30 51t17.5 60q0 54 -40.5 87.5t-96.5 33.5 q-147 0 -155 -182zM385 0v262h301v-262h-301z" />
<glyph unicode="@" horiz-adv-x="1884" d="M129 680q0 172 64.5 324t176.5 260t268 170.5t333 62.5q226 0 401 -87t273 -248.5t98 -373.5q0 -83 -12 -157.5t-42 -145.5t-75 -122t-116 -82t-161 -31q-66 0 -139 35t-98 98h-8q-29 -51 -93 -90t-139 -39q-130 0 -213.5 64.5t-83.5 191.5q0 112 81 186t222 74h189v27 q0 18 -4 32.5t-16.5 32.5t-43.5 28.5t-78 10.5q-67 0 -104.5 -13.5t-83.5 -51.5l-115 153q135 119 330 119q55 0 103 -8.5t93.5 -29t77.5 -52.5t51.5 -82.5t18.5 -114.5l-2 -293q0 -31 19 -58.5t63 -27.5q43 0 75.5 19.5t51.5 50.5t30 77t15 92t4 103q0 160 -76 283.5 t-206 188.5t-291 65q-181 0 -327 -87.5t-226 -234.5t-80 -323q0 -181 86 -323.5t235.5 -220t335.5 -77.5q143 0 251 26.5t226 80.5l66 -178q-148 -59 -268 -86t-265 -27q-148 0 -280 34.5t-240.5 102.5t-187 164.5t-121.5 226.5t-43 281zM795 530q0 -10 4.5 -21t15.5 -24.5 t35.5 -22.5t58.5 -9q62 0 104 28.5t42 85.5v27h-158q-102 0 -102 -64z" />
<glyph unicode="A" horiz-adv-x="1351" d="M-4 0l553 1425h248l553 -1425h-332l-107 291h-477l-106 -291h-332zM532 557h281l-53 164l-84 283h-8l-82 -279z" />
<glyph unicode="B" horiz-adv-x="1304" d="M143 0v1425h600q223 0 347 -110.5t124 -292.5q0 -85 -44 -161.5t-134 -117.5v-8q62 -22 109 -75.5t69.5 -115t22.5 -120.5q0 -187 -129.5 -305.5t-314.5 -118.5h-650zM459 283h268q94 0 140 44t46 111t-46.5 113.5t-139.5 46.5h-268v-315zM459 858h241q92 0 136.5 43 t44.5 107q0 62 -43.5 98.5t-137.5 36.5h-241v-285z" />
<glyph unicode="C" horiz-adv-x="1228" d="M92 545v336q0 113 34.5 211.5t101 176t173.5 122.5t242 45q198 0 337.5 -98.5t193.5 -264.5l-300 -106q-18 77 -79 125.5t-154 48.5q-112 0 -171.5 -68t-59.5 -164v-387q0 -100 59.5 -169.5t171.5 -69.5q93 0 154 49t79 129l300 -115q-53 -168 -192.5 -263t-338.5 -95 q-181 0 -306.5 72t-185 195.5t-59.5 289.5z" />
<glyph unicode="D" horiz-adv-x="1345" d="M143 0v1425h568q167 0 293.5 -65t191.5 -199q35 -71 45 -168.5t10 -255.5q0 -174 -9.5 -276t-41.5 -178q-124 -283 -524 -283h-533zM459 283h207q150 0 211 78t61 227v260q0 150 -66 221.5t-213 71.5h-200v-858z" />
<glyph unicode="E" horiz-adv-x="1198" d="M143 0v1425h1008v-282h-692v-289h590v-272h-590v-299h692v-283h-1008z" />
<glyph unicode="F" horiz-adv-x="1159" d="M143 0v1425h1008v-282h-692v-301h590v-273h-590v-569h-316z" />
<glyph unicode="G" horiz-adv-x="1304" d="M100 545v336q0 113 34.5 211.5t101 176t173.5 122.5t242 45q198 0 337.5 -98.5t193.5 -264.5l-299 -106q-18 77 -79.5 125.5t-154.5 48.5q-112 0 -171.5 -68t-59.5 -164v-387q0 -100 60 -170.5t173 -70.5q101 0 173.5 71t72.5 168v10h-291v263h602v-285q0 -146 -75 -266 t-202.5 -187t-279.5 -67q-181 0 -306.5 72t-185 195.5t-59.5 289.5z" />
<glyph unicode="H" horiz-adv-x="1380" d="M143 0v1425h316v-571h467v571h311v-1425h-311v582h-467v-582h-316z" />
<glyph unicode="I" horiz-adv-x="602" d="M150 0v1425h315v-1425h-315z" />
<glyph unicode="J" horiz-adv-x="1046" d="M6 180l211 207q102 -111 203 -111q32 0 61 8t59 27.5t48 61.5t18 102v950h312v-964q0 -105 -26 -187.5t-70 -135t-106.5 -86.5t-130.5 -48t-147 -14q-140 0 -248 42t-184 148z" />
<glyph unicode="K" horiz-adv-x="1345" d="M143 0v1425h316v-610l4 -4l217 264l297 350h381l-500 -577l528 -848h-372l-369 606l-186 -209v-397h-316z" />
<glyph unicode="L" horiz-adv-x="1198" d="M143 0v1425h316v-1142h692v-283h-1008z" />
<glyph unicode="M" horiz-adv-x="1601" d="M143 0v1425h285l193 -413l184 -428h8l178 428l189 413h297v-1425h-314v678l-6 2l-129 -289l-96 -201h-242l-100 211l-125 279l-6 -6v-674h-316z" />
<glyph unicode="N" horiz-adv-x="1454" d="M143 0v1425h281l299 -436l274 -428l4 2v862h316v-1425h-281l-362 524l-211 340l-4 -2v-862h-316z" />
<glyph unicode="O" horiz-adv-x="1277" d="M84 545v336q0 113 34.5 211.5t101 176t173.5 122.5t242 45q254 0 406.5 -156t152.5 -399v-336q0 -254 -152.5 -405.5t-406.5 -151.5q-135 0 -242 45t-173.5 122.5t-101 177t-34.5 212.5zM401 522q0 -100 60 -169.5t172 -69.5q111 0 175 67.5t64 171.5v387q0 98 -64.5 165 t-174.5 67q-112 0 -172 -68t-60 -164v-387z" />
<glyph unicode="P" horiz-adv-x="1247" d="M143 0v1425h588q227 0 363.5 -123.5t136.5 -334.5q0 -191 -144 -319t-350 -128h-278v-520h-316zM459 803h264q80 0 134 47t54 123q0 170 -196 170h-256v-340z" />
<glyph unicode="Q" horiz-adv-x="1304" d="M98 545v336q0 113 34.5 211.5t101 176t173.5 122.5t242 45q254 0 406.5 -156t152.5 -399v-336q0 -151 -57 -271l166 -133l-172 -194l-166 129q-139 -88 -330 -88q-135 0 -242 45t-173.5 122.5t-101 177t-34.5 212.5zM416 522q0 -100 59.5 -169.5t171.5 -69.5q32 0 62 6 l-144 112l172 207l148 -119q0 5 1 16t1 17v387q0 98 -65 165t-175 67q-112 0 -171.5 -68t-59.5 -164v-387z" />
<glyph unicode="R" horiz-adv-x="1335" d="M143 0v1425h631q127 0 230.5 -49t167 -147.5t63.5 -231.5q0 -130 -67.5 -233t-194.5 -158l272 -606h-356l-225 551h-205v-551h-316zM459 834h260q88 0 138 41.5t50 119.5q0 77 -47.5 113.5t-130.5 36.5h-270v-311z" />
<glyph unicode="S" horiz-adv-x="1216" d="M16 184l183 242q94 -84 195 -117t220 -33q99 0 157 41t58 101q0 30 -6.5 52t-25.5 45t-59.5 37.5t-102.5 20.5q-89 9 -159 24t-141.5 46t-119 76t-77 116t-29.5 164q0 109 44 195.5t116 138t157.5 78.5t175.5 27q302 0 504 -133l-145 -252q-151 96 -351 96 q-105 0 -146.5 -39.5t-41.5 -93.5q0 -66 59 -95t240 -57q75 -12 136.5 -30.5t119.5 -52t97.5 -79t63 -113t23.5 -151.5q0 -86 -31.5 -160.5t-86 -126.5t-126.5 -89.5t-153 -55.5t-166 -18q-169 0 -311 41t-271 155z" />
<glyph unicode="T" horiz-adv-x="1138" d="M16 1143v282h1092v-282h-389v-1143h-313v1143h-390z" />
<glyph unicode="U" horiz-adv-x="1345" d="M119 516v909h313v-886q0 -118 69.5 -187t172.5 -69q107 0 173 61t66 176v905h316v-927q0 -149 -75 -266t-201.5 -179.5t-278.5 -62.5q-153 0 -279 64.5t-201 185.5t-75 276z" />
<glyph unicode="V" horiz-adv-x="1243" d="M-2 1425h332l182 -577l106 -363h11l100 357l180 583h330l-491 -1425h-256z" />
<glyph unicode="W" horiz-adv-x="1748" d="M2 1421h330l100 -422l90 -405h6l109 405l123 422h229l123 -420l109 -407h10l86 405l100 422h330l-381 -1425h-254l-133 463l-100 389h-7l-102 -395l-131 -457h-256z" />
<glyph unicode="X" horiz-adv-x="1288" d="M0 0l483 729l-456 696h358l254 -428l256 428h358l-456 -696l485 -729h-358l-285 463l-283 -463h-356z" />
<glyph unicode="Y" horiz-adv-x="1239" d="M14 1425h338l146 -307l123 -276h8l121 274l147 309h338l-461 -841v-584h-301v584z" />
<glyph unicode="Z" horiz-adv-x="1124" d="M57 0v268l627 877h-600v280h981v-260l-625 -876h625v-289h-1008z" />
<glyph unicode="[" horiz-adv-x="643" d="M137 -195v1627h469v-218h-190v-1194h190v-215h-469z" />
<glyph unicode="\" horiz-adv-x="753" d="M-31 1485h246l518 -1571h-244z" />
<glyph unicode="]" horiz-adv-x="643" d="M37 20h188v1194h-188v218h467v-1627h-467v215z" />
<glyph unicode="^" d="M49 481l397 942h230l391 -938h-266l-242 615l-244 -619h-266z" />
<glyph unicode="_" horiz-adv-x="1024" d="M0 -141h1024v-187h-1024v187z" />
<glyph unicode="`" horiz-adv-x="1056" d="M227 1481l275 94l190 -397l-166 -78z" />
<glyph unicode="a" horiz-adv-x="1056" d="M72 301q0 135 97.5 224t268.5 89h230v33q0 123 -170 123q-148 0 -240 -80l-141 199q85 77 186.5 106t224.5 29q430 0 430 -346v-678h-290v94l-6 2q-49 -57 -118 -81.5t-132 -24.5q-155 0 -247.5 77.5t-92.5 233.5zM352 326q0 -13 5.5 -27t19 -30.5t43.5 -27t72 -10.5 q74 0 125 35t51 103v32h-193q-123 0 -123 -75z" />
<glyph unicode="b" horiz-adv-x="1091" d="M119 0v1489h293v-557l4 -2q34 40 100.5 67t120.5 27q369 0 369 -496q0 -538 -369 -538q-58 0 -119 24.5t-102 69.5l-4 -4v-80h-293zM412 508q0 -37 2 -64.5t10 -64.5t22.5 -61t43 -41t67.5 -17q34 0 60.5 10.5t42 31.5t26 42.5t14.5 53.5t5.5 55t1.5 55q0 40 -2 68.5 t-10.5 64.5t-23.5 58.5t-44 38.5t-70 16q-39 0 -67 -16.5t-42.5 -40t-23 -59.5t-10.5 -64.5t-2 -65.5z" />
<glyph unicode="c" horiz-adv-x="948" d="M57 506q0 132 40 234t109 162.5t154 91t183 30.5q214 0 358 -147l-188 -199q-87 84 -170 84q-90 0 -135.5 -61.5t-45.5 -194.5q0 -134 41.5 -193t133.5 -59q87 0 180 86l192 -197q-172 -155 -383 -155q-97 0 -180 30.5t-148.5 92t-103 162.5t-37.5 233z" />
<glyph unicode="d" horiz-adv-x="1091" d="M100 528q0 66 9.5 130t36 132.5t67.5 119t109 83.5t155 33q61 0 119 -24t96 -70l4 2v553h293v-1487h-293v80l-4 4q-42 -45 -103 -69.5t-120 -24.5q-73 0 -130.5 19t-95.5 48.5t-66 76t-42.5 90t-22.5 103t-10 102t-2 99.5zM399 481q0 -221 150 -221q40 0 68.5 17.5 t43 40.5t23 61.5t10 64t2.5 64.5q0 37 -2 65.5t-10.5 64.5t-23 59.5t-42.5 40t-67 16.5q-35 0 -62 -12t-43 -35t-26 -47t-14.5 -59.5t-5.5 -60t-1 -59.5z" />
<glyph unicode="e" horiz-adv-x="1091" d="M72 504q0 111 26.5 200.5t71 148t105 98t125 56.5t135.5 17q118 0 208 -38.5t146 -108.5t84 -164.5t28 -210.5v-72h-626q9 -95 51.5 -136.5t118.5 -41.5q49 0 111 21.5t118 72.5l180 -201q-90 -83 -199.5 -120t-217.5 -37q-71 0 -134.5 14t-125.5 50.5t-106 93 t-71.5 148.5t-27.5 210zM385 618h301q-7 67 -49.5 106.5t-99.5 39.5t-99.5 -40t-52.5 -106z" />
<glyph unicode="f" horiz-adv-x="665" d="M41 786v228h115v176q0 146 87.5 221.5t225.5 75.5h176v-246h-119q-80 0 -80 -84v-143h199v-228h-199v-786h-290v786h-115z" />
<glyph unicode="g" horiz-adv-x="1091" d="M82 483q0 53 3 99t13 102.5t26 102t45.5 91t68.5 76t96.5 49.5t128.5 19q135 0 211 -82l4 2v72h293v-987q0 -94 -26 -171t-70.5 -128t-105.5 -86t-129 -50.5t-144 -15.5q-225 0 -377 131l143 203q56 -36 120.5 -54t111.5 -18q79 0 132.5 44t53.5 120v80l-4 2 q-34 -41 -96 -68.5t-115 -27.5q-383 0 -383 495zM381 504q0 -40 2 -68.5t10.5 -64.5t24 -58.5t44.5 -38.5t70 -16q39 0 67 16.5t43 40t23.5 59.5t10.5 64.5t2 65.5t-2 64.5t-10.5 64.5t-23 61t-43 41t-67.5 17q-41 0 -70.5 -16.5t-44.5 -40t-23.5 -60.5t-10.5 -64.5 t-2 -66.5z" />
<glyph unicode="h" horiz-adv-x="1128" d="M123 0v1487h293v-545l8 -2q41 35 109.5 59.5t125.5 24.5q149 0 247 -96.5t98 -268.5v-659h-291v598q0 74 -40 115t-104 41q-67 0 -110 -41t-43 -115v-598h-293z" />
<glyph unicode="i" horiz-adv-x="550" d="M129 0v1014h293v-1014h-293zM129 1169v256h293v-256h-293z" />
<glyph unicode="j" horiz-adv-x="585" d="M-18 -156h53q68 0 90 29t22 78v1065h293v-1122q0 -141 -86 -222.5t-250 -81.5h-122v254zM147 1169v256h293v-256h-293z" />
<glyph unicode="k" horiz-adv-x="1091" d="M123 0v1487h293v-819l4 -2l133 159l176 189h365l-387 -410l415 -604h-334l-272 401l-100 -108v-293h-293z" />
<glyph unicode="l" horiz-adv-x="585" d="M123 301v1186h293v-1131q0 -62 23 -82t69 -20h33v-254h-105q-67 0 -119.5 13.5t-98 45.5t-70.5 93.5t-25 148.5z" />
<glyph unicode="m" horiz-adv-x="1716" d="M123 0v1014h293v-94l8 -2q37 46 111 76t145 30q189 0 260 -145q62 63 143.5 104t165.5 41q161 0 252.5 -94.5t91.5 -270.5v-659h-290v602q0 74 -42 115t-106 41q-67 0 -108 -41t-41 -115v-602h-293v602q0 74 -42 115t-106 41q-67 0 -108 -41t-41 -115v-602h-293z" />
<glyph unicode="n" horiz-adv-x="1128" d="M123 0v1014h293v-84h4q44 41 115.5 67.5t130.5 26.5q165 0 251.5 -93.5t86.5 -271.5v-659h-291v598q0 74 -40 115t-104 41q-67 0 -110 -41t-43 -115v-598h-293z" />
<glyph unicode="o" horiz-adv-x="1056" d="M68 508q3 180 53 285q53 112 165 172.5t257 60.5q118 0 214 -44t152 -126q80 -119 80 -338v-16q0 -189 -78 -320q-61 -98 -165.5 -147t-229.5 -49q-252 0 -362 161q-86 127 -86 346v15zM367 504q0 -111 28 -168q41 -84 129 -84q53 0 91 28t55 82q18 65 18 146v21 q0 94 -24 147q-18 43 -53.5 65.5t-78.5 22.5t-79 -23.5t-56 -64.5q-27 -57 -30 -172z" />
<glyph unicode="p" horiz-adv-x="1091" d="M129 -414v1428h291v-72l6 -2q77 82 219 82q64 0 116.5 -13t89.5 -39t65 -56.5t45.5 -73.5t29 -82t17 -89.5t7 -88.5t1.5 -86q0 -71 -8 -134t-33 -134t-66 -121t-113 -83.5t-167 -33.5q-56 0 -115 24.5t-88 67.5l-6 -2v-492h-291zM420 504q0 -37 2 -66t11 -65.5t24 -60.5 t43 -41t67 -17q48 0 80 22.5t46 63t19 78t5 86.5q0 32 -1.5 55.5t-5.5 55.5t-14.5 54.5t-26 43.5t-42 32t-60.5 11q-40 0 -68.5 -17.5t-43.5 -42t-23 -62.5t-10 -65.5t-2 -64.5z" />
<glyph unicode="q" horiz-adv-x="1091" d="M104 483q0 539 394 539q119 0 198 -82l4 2v72h293v-1428h-293v494l-4 2q-34 -40 -95.5 -67t-113.5 -27q-70 0 -127.5 16t-96.5 42t-68.5 65.5t-46.5 81t-27 93.5t-13.5 97.5t-3.5 99.5zM403 504q0 -41 1.5 -68.5t10 -65t23.5 -60t43.5 -38.5t69.5 -16q39 0 67.5 16.5 t43.5 40.5t24 60t11.5 65.5t2.5 65.5q0 30 -1.5 53t-5.5 55t-14 54.5t-25.5 44t-40.5 32.5t-58 11q-41 0 -70.5 -17t-45 -40.5t-24 -60.5t-10.5 -65t-2 -67z" />
<glyph unicode="r" horiz-adv-x="841" d="M123 -2v1016h287v-115l6 -2q39 57 99 92t126 35q65 0 114 -13.5t101 -49.5l-102 -256q-89 53 -189 53q-67 0 -108 -41t-41 -115v-604h-293z" />
<glyph unicode="s" horiz-adv-x="958" d="M29 145l143 205q122 -117 324 -117q55 0 92 22.5t37 53.5q0 34 -26.5 57t-100.5 31q-39 4 -68 8.5t-65 11.5t-63 15t-57.5 21t-51.5 28t-42 36.5t-33.5 47.5t-20 59t-7.5 72q0 158 109.5 243t275.5 85q125 0 224.5 -26t189.5 -93l-131 -217q-124 84 -277 84 q-60 0 -89.5 -19.5t-29.5 -45.5q0 -35 44.5 -53.5t160.5 -32.5q77 -10 133.5 -27t107 -50t77 -90t26.5 -137q0 -104 -62 -180.5t-157.5 -112.5t-208.5 -36q-134 0 -240.5 31.5t-213.5 125.5z" />
<glyph unicode="t" horiz-adv-x="681" d="M66 786v230h114v278h285v-278h153v-230h-149v-428q0 -61 20.5 -82.5t67.5 -21.5h64v-254h-158q-126 0 -206.5 73t-80.5 199v514h-110z" />
<glyph unicode="u" horiz-adv-x="1128" d="M125 352v662h293v-600q0 -75 39 -115.5t102 -40.5q67 0 111.5 41t44.5 115v600h293v-1014h-293v86h-4q-39 -45 -109 -71.5t-131 -26.5q-162 0 -254 94t-92 270z" />
<glyph unicode="v" horiz-adv-x="1040" d="M8 1014h314l90 -273l106 -340h4l107 340l92 273h311l-397 -1014h-227z" />
<glyph unicode="w" horiz-adv-x="1542" d="M10 1014h312l71 -252l80 -316h10l92 316l82 252h234l80 -252l90 -316h12l80 316l72 252h311l-346 -1014h-246l-78 250l-90 309h-6l-88 -307l-82 -252h-244z" />
<glyph unicode="x" horiz-adv-x="1101" d="M14 0l387 516l-372 498h350l170 -279l170 279h352l-375 -498l391 -516h-354l-184 291l-182 -291h-353z" />
<glyph unicode="y" horiz-adv-x="1028" d="M0 1014h313l99 -289l98 -319h8l96 315l103 293h311l-459 -1211q-79 -213 -321 -213h-117v240h76q84 0 117 100l49 152z" />
<glyph unicode="z" horiz-adv-x="948" d="M57 0v244l469 520h-440v250h803v-234l-467 -518h467v-262h-832z" />
<glyph unicode="{" horiz-adv-x="643" d="M25 510v213q155 6 155 184v264q0 113 70 183.5t174 70.5h201v-206h-84q-42 0 -62 -36.5t-20 -82.5v-240q0 -87 -44.5 -149t-111.5 -95q72 -27 114 -88.5t42 -150.5v-242q0 -23 0.5 -33t4.5 -30.5t12 -30.5t24.5 -18.5t40.5 -8.5h84v-204h-201q-104 0 -174 70t-70 183v269 q0 178 -155 178z" />
<glyph unicode="|" horiz-adv-x="530" d="M137 -467v1962h254v-1962h-254z" />
<glyph unicode="}" horiz-adv-x="643" d="M23 14h83q24 0 40.5 8.5t24.5 18.5t12 30.5t4.5 30.5t0.5 33v242q0 89 41.5 150.5t114.5 88.5q-67 33 -111.5 95t-44.5 149v240q0 45 -21 82t-61 37h-83v206h200q103 0 172.5 -70.5t69.5 -183.5v-264q0 -178 158 -184v-213q-158 0 -158 -178v-269q0 -113 -69.5 -183 t-172.5 -70h-200v204z" />
<glyph unicode="~" d="M88 463q65 129 138 191.5t177 62.5q53 -1 116.5 -29t118 -56t85.5 -28q76 0 166 115l158 -96q-119 -250 -291 -250q-55 0 -120.5 27t-122.5 54t-93 27q-44 0 -86 -25t-92 -89z" />
<glyph unicode="&#xa1;" horiz-adv-x="602" d="M154 752v262h301v-262h-301zM158 -412l20 1035h252l23 -1035h-295z" />
<glyph unicode="&#xa2;" d="M139 506q0 119 32.5 213.5t90 155.5t129.5 96.5t158 46.5v285h119v-281q182 -12 315 -145l-188 -199q-87 84 -170 84q-90 0 -135.5 -61.5t-45.5 -194.5q0 -134 41.5 -193t132.5 -59q88 0 181 86l192 -197q-149 -133 -323 -151v-268h-119v268q-87 8 -160 42.5t-129.5 96 t-88.5 157.5t-32 218z" />
<glyph unicode="&#xa3;" d="M61 547v213h134q-10 34 -32.5 90.5t-35 97.5t-12.5 76q0 79 26.5 150t80 130.5t146.5 94.5t214 35q64 0 108 -4t96.5 -18t94 -40t89 -72t93.5 -112l-244 -166q-60 83 -108.5 112t-112.5 29q-57 0 -102 -41t-45 -108q0 -37 36 -117.5t48 -136.5h288v-213h-286 q-17 -170 -80 -291h581v-256h-966v221q65 84 97.5 158t41.5 168h-150z" />
<glyph unicode="&#xa4;" horiz-adv-x="1138" d="M53 299l137 135q-61 110 -61 223q0 106 64 222l-140 137l150 151l139 -139q119 66 223 66q114 0 223 -62q39 41 138 135l149 -151l-139 -137q65 -117 65 -222q0 -117 -63 -223q56 -47 137 -133l-149 -151l-135 137q-113 -66 -226 -66q-110 0 -225 66l-137 -137zM344 657 q0 -90 64.5 -154.5t154.5 -64.5q91 0 156 64t65 155q0 93 -64.5 156.5t-156.5 63.5q-90 0 -154.5 -63.5t-64.5 -156.5z" />
<glyph unicode="&#xa5;" d="M-27 1425h351l151 -338l96 -253h9l94 258l153 333h326l-350 -677h207v-168h-297v-86h297v-168h-297v-326h-301v326h-291v168h291v86h-291v168h201z" />
<glyph unicode="&#xa6;" horiz-adv-x="530" d="M137 449h254v-916h-254v916zM137 582v913h254v-913h-254z" />
<glyph unicode="&#xa7;" horiz-adv-x="1044" d="M63 -2l162 192q63 -57 137 -90.5t140 -33.5q84 0 126 28.5t42 79.5q0 39 -40.5 67t-158.5 62q-94 26 -155 52t-115 67t-79.5 100.5t-25.5 141.5q0 64 45 124.5t103 83.5q-117 89 -117 213q0 156 116 251.5t292 95.5q132 0 230 -26t189 -95l-139 -199q-135 80 -295 80 q-69 0 -100 -27.5t-31 -66.5q0 -25 19 -46t55.5 -36.5t66 -25.5t74 -21.5t55.5 -14.5q64 -18 112.5 -41.5t94.5 -62t70.5 -99t24.5 -139.5q0 -69 -41.5 -136.5t-90.5 -88.5q50 -35 79.5 -88.5t29.5 -108.5q0 -116 -61 -200t-159.5 -124t-221.5 -40q-121 0 -233 45t-200 127z M360 674q0 -52 93 -86q31 -12 103 -32.5t110 -33.5q34 19 34 74q0 39 -41 68t-157 61q-50 12 -90 27q-52 -20 -52 -78z" />
<glyph unicode="&#xa8;" horiz-adv-x="1056" d="M156 1165v267h303v-267h-303zM602 1165v267h305v-267h-305z" />
<glyph unicode="&#xa9;" horiz-adv-x="1679" d="M115 700q0 209 95.5 378t262 264.5t369.5 95.5q153 0 287 -55t231 -151.5t153 -234.5t56 -297q0 -209 -95.5 -377.5t-261.5 -262t-370 -93.5q-205 0 -370.5 91.5t-261 259.5t-95.5 382zM295 700q0 -244 157 -408.5t390 -164.5t390 164.5t157 408.5q0 253 -156 414.5 t-391 161.5q-153 0 -278.5 -75.5t-197 -207.5t-71.5 -293zM496 578v210q0 149 91 251t257 102q126 0 214.5 -62.5t121.5 -167.5l-189 -67q-11 48 -50 79t-99 31q-71 0 -108.5 -42.5t-37.5 -104.5v-244q0 -63 37.5 -107t108.5 -44q59 0 98.5 31t50.5 83l189 -73 q-32 -108 -120.5 -168t-215.5 -60q-169 0 -258.5 96.5t-89.5 256.5z" />
<glyph unicode="&#xaa;" horiz-adv-x="729" d="M43 776q0 89 68.5 144t191.5 55h143v24q0 24 -25 46t-73 22q-109 0 -166 -57l-119 131q103 108 291 108q314 0 314 -233v-445h-222v72q-30 -44 -79.5 -62t-92.5 -18q-109 0 -170 53.5t-61 159.5zM258 791q0 -6 3 -13t10.5 -15.5t25.5 -14t43 -5.5q46 0 76 18.5t30 57.5 v21h-118q-39 0 -54.5 -16t-15.5 -33z" />
<glyph unicode="&#xab;" horiz-adv-x="1210" d="M94 459l299 438h287l-293 -438l293 -439h-287zM561 459l299 438h287l-291 -438l291 -439h-287z" />
<glyph unicode="&#xac;" d="M39 492v237h1048l3 -618h-254v381h-797z" />
<glyph unicode="&#xad;" horiz-adv-x="901" d="M96 393v269h709v-269h-709z" />
<glyph unicode="&#xae;" horiz-adv-x="1077" d="M92 991q0 124 62.5 227t166 160.5t222.5 57.5q192 0 322 -127.5t130 -317.5q0 -123 -63 -225t-166.5 -158.5t-222.5 -56.5q-192 0 -321.5 125.5t-129.5 314.5zM205 991q0 -142 98 -241t240 -99q144 0 240 99t96 241q0 145 -96 242.5t-240 97.5q-143 0 -240.5 -98 t-97.5 -242zM373 745v500h198q68 0 114 -41t46 -110q0 -90 -82 -140l96 -209h-120l-86 191h-60v-191h-106zM479 1036h88q28 0 45 16t17 42q0 49 -58 49h-92v-107z" />
<glyph unicode="&#xaf;" horiz-adv-x="1056" d="M188 1184v241h682v-241h-682z" />
<glyph unicode="&#xb0;" horiz-adv-x="886" d="M109 1122q0 129 97.5 221.5t235.5 92.5q139 0 237.5 -92.5t98.5 -221.5q0 -131 -98.5 -223t-237.5 -92q-138 0 -235.5 92t-97.5 223zM309 1122q0 -52 39.5 -89.5t93.5 -37.5q55 0 94 37t39 90q0 52 -38.5 88.5t-94.5 36.5q-54 0 -93.5 -36.5t-39.5 -88.5z" />
<glyph unicode="&#xb1;" d="M29 0v231h1069v-231h-1069zM37 655v238h399v373h254v-373h400v-238h-400v-354h-254v354h-399z" />
<glyph unicode="&#xb2;" horiz-adv-x="702" d="M43 756v170l367 379q22 22 22 47q0 29 -20.5 49t-55.5 20q-33 0 -59 -26.5t-33 -79.5l-221 31q15 122 104.5 196t206.5 74q137 0 221 -64.5t84 -185.5q0 -102 -71 -176l-230 -240h297v-194h-612z" />
<glyph unicode="&#xb3;" horiz-adv-x="708" d="M39 995l217 29q7 -39 33.5 -59.5t62.5 -20.5q38 0 63 22t25 58q0 39 -26 63.5t-78 24.5h-74v166h76q50 0 74 21.5t24 52.5q0 29 -24 49t-60 20q-31 0 -55.5 -20.5t-32.5 -67.5l-215 33q25 115 113 182.5t198 67.5q154 0 233 -72.5t79 -181.5q0 -46 -25.5 -94.5 t-77.5 -71.5q38 -15 64 -47.5t35.5 -64t9.5 -62.5q0 -121 -88.5 -196.5t-233.5 -75.5q-112 0 -201.5 60.5t-115.5 184.5z" />
<glyph unicode="&#xb4;" horiz-adv-x="1056" d="M375 1161l174 416l272 -88l-276 -389z" />
<glyph unicode="&#xb5;" horiz-adv-x="1128" d="M123 -410l2 1424h293v-600q0 -74 40.5 -114t104.5 -40q67 0 108.5 40t41.5 114v600h293v-1012h-293v70l-8 4q-84 -84 -205 -84q-37 0 -82 10v-412h-295z" />
<glyph unicode="&#xb6;" horiz-adv-x="1153" d="M55 1028q0 76 24.5 148.5t70 132.5t120 96.5t166.5 36.5q110 0 317.5 1t325.5 1v-176h-88v-1430h-203v1430h-145v-1430h-209v799h-49q-152 0 -241 115.5t-89 275.5z" />
<glyph unicode="&#xb7;" horiz-adv-x="620" d="M137 406v337h346v-337h-346z" />
<glyph unicode="&#xb8;" horiz-adv-x="948" d="M240 -391l51 127q76 -37 151 -37q35 0 58.5 16t23.5 45q0 26 -18 39t-40 12t-40 -10l-80 41l82 258l147 2l-57 -176q100 -11 148.5 -63.5t48.5 -120.5q0 -77 -68 -135t-178 -58q-133 0 -229 60z" />
<glyph unicode="&#xb9;" horiz-adv-x="583" d="M84 1284v223l168 103h190v-854h-225v612z" />
<glyph unicode="&#xba;" horiz-adv-x="729" d="M43 907q3 118 37 187q36 74 116 115.5t181 41.5q83 0 152 -30t108 -86q55 -79 55 -232q0 -121 -55 -207q-41 -65 -116.5 -100t-162.5 -35q-176 0 -256 111q-62 84 -59 235zM270 905q0 -60 19 -100q22 -49 76 -49q62 0 86 63q12 36 12 88q0 73 -14 105q-21 47 -78 47 t-82 -49q-19 -36 -19 -105z" />
<glyph unicode="&#xbb;" horiz-adv-x="1210" d="M94 20l291 439l-291 438h287l299 -438l-299 -439h-287zM561 20l293 439l-293 438h287l299 -438l-299 -439h-287z" />
<glyph unicode="&#xbc;" horiz-adv-x="1894" d="M211 1100v223l168 102h190v-854h-225v613zM362 -35l871 1495h242l-873 -1495h-240zM1001 115v155l320 584h252l-305 -549h118v152h224v-152h73v-190h-73v-115h-224v115h-385z" />
<glyph unicode="&#xbd;" horiz-adv-x="1894" d="M164 1100v223l168 102h190v-854h-225v613zM313 -35l871 1495h241l-872 -1495h-240zM1114 0v170l367 381v-2q20 20 20 47q0 29 -21.5 49.5t-56.5 20.5q-74 0 -88 -107l-221 31q15 123 102 196.5t203 73.5q138 0 224 -65t86 -185q0 -103 -70 -176l-229 -239h296v-195h-612z " />
<glyph unicode="&#xbe;" horiz-adv-x="1894" d="M127 811l217 29q7 -39 33.5 -59.5t62.5 -20.5q38 0 63 22t25 58q0 39 -26 63.5t-78 24.5h-74v166h76q50 0 74 21t24 52q0 30 -24 50t-60 20q-31 0 -55.5 -20.5t-32.5 -67.5l-215 33q25 115 113.5 182.5t198.5 67.5q154 0 232.5 -72.5t78.5 -181.5q0 -46 -25.5 -94.5 t-77.5 -71.5q38 -15 64 -47.5t35.5 -64t9.5 -62.5q0 -121 -88.5 -197t-233.5 -76q-111 0 -201 61t-116 185zM440 -35l871 1495h241l-872 -1495h-240zM1085 115v155l320 584h252l-305 -549h118v152h224v-152h73v-190h-73v-115h-224v115h-385z" />
<glyph unicode="&#xbf;" horiz-adv-x="1013" d="M70 -18q0 53 17 101.5t43.5 86.5t59.5 75t65.5 73t59 73t43.5 83t17 95v45h301v-55q0 -112 -39 -194t-148 -224q-61 -75 -77 -112q-11 -27 -11 -49q0 -54 41 -87.5t97 -33.5q147 0 155 182l299 -35q-10 -100 -53.5 -182.5t-109 -136t-145.5 -82.5t-165 -29 q-208 0 -329 114t-121 292zM375 750v262h301v-262h-301z" />
<glyph unicode="&#xc0;" horiz-adv-x="1351" d="M-4 0l553 1425h248l553 -1425h-332l-107 291h-477l-106 -291h-332zM266 1686l185 219l368 -263l-114 -141zM532 557h281l-53 164l-84 283h-8l-82 -279z" />
<glyph unicode="&#xc1;" horiz-adv-x="1351" d="M-4 0l553 1425h248l553 -1425h-332l-107 291h-477l-106 -291h-332zM532 557h281l-53 164l-84 283h-8l-82 -279zM555 1642l369 263l184 -219l-438 -185z" />
<glyph unicode="&#xc2;" horiz-adv-x="1351" d="M-4 0l553 1425h248l553 -1425h-332l-107 291h-477l-106 -291h-332zM264 1608l305 245h201l309 -245l-104 -121l-305 162l-308 -160zM532 557h281l-53 164l-84 283h-8l-82 -279z" />
<glyph unicode="&#xc3;" horiz-adv-x="1351" d="M-4 0l553 1425h248l553 -1425h-332l-107 291h-477l-106 -291h-332zM254 1575q56 115 119 172t151 57q45 -1 99.5 -26t101 -49.5t72.5 -24.5q35 0 66 22.5t71 75.5l139 -82q-53 -116 -114 -169.5t-134 -53.5q-47 0 -102.5 24t-104 48t-79.5 24q-77 0 -152 -102zM532 557 h281l-53 164l-84 283h-8l-82 -279z" />
<glyph unicode="&#xc4;" horiz-adv-x="1351" d="M-4 0l553 1425h248l553 -1425h-332l-107 291h-477l-106 -291h-332zM297 1524v272h313v-272h-313zM532 557h281l-53 164l-84 283h-8l-82 -279zM737 1524v272h312v-272h-312z" />
<glyph unicode="&#xc5;" horiz-adv-x="1351" d="M-4 0l553 1425h248l553 -1425h-332l-107 291h-477l-106 -291h-332zM418 1702q0 98 75 167.5t181 69.5q104 0 179 -69.5t75 -167.5t-75 -168t-181 -70q-104 0 -179 70t-75 168zM532 557h281l-53 164l-84 283h-8l-82 -279zM590 1702q0 -32 24.5 -55t59.5 -23q34 0 58 23 t24 55t-24 54t-58 22q-35 0 -59.5 -22t-24.5 -54z" />
<glyph unicode="&#xc6;" horiz-adv-x="2234" d="M88 0l862 1425h1170v-282h-693v-289h590v-272h-590v-299h693v-283h-1008v305h-479l-172 -305h-373zM782 580h330v563h-8z" />
<glyph unicode="&#xc7;" horiz-adv-x="1228" d="M92 545v336q0 113 34.5 211.5t101 176t173.5 122.5t242 45q198 0 337.5 -98.5t193.5 -264.5l-300 -106q-18 77 -79 125.5t-154 48.5q-112 0 -171.5 -68t-59.5 -164v-387q0 -100 59.5 -169.5t171.5 -69.5q93 0 154 49t79 129l300 -115q-50 -159 -176.5 -252.5 t-307.5 -103.5l-20 -64q100 -11 148 -63t48 -121q0 -77 -67.5 -135t-177.5 -58q-134 0 -230 60l51 127q76 -37 152 -37q35 0 58.5 16t23.5 45q0 26 -18 39t-40 12t-40 -10l-80 41l47 152q-223 27 -338 174t-115 377z" />
<glyph unicode="&#xc8;" horiz-adv-x="1198" d="M143 0v1425h1008v-282h-692v-289h590v-272h-590v-299h692v-283h-1008zM221 1686l185 219l368 -263l-115 -141z" />
<glyph unicode="&#xc9;" horiz-adv-x="1198" d="M143 0v1425h1008v-282h-692v-289h590v-272h-590v-299h692v-283h-1008zM412 1642l368 263l185 -219l-439 -185z" />
<glyph unicode="&#xca;" horiz-adv-x="1198" d="M143 0v1425h1008v-282h-692v-289h590v-272h-590v-299h692v-283h-1008zM207 1608l305 245h201l309 -245l-104 -121l-306 162l-307 -160z" />
<glyph unicode="&#xcb;" horiz-adv-x="1198" d="M143 0v1425h1008v-282h-692v-289h590v-272h-590v-299h692v-283h-1008zM297 1524v272h313v-272h-313zM737 1524v272h312v-272h-312z" />
<glyph unicode="&#xcc;" horiz-adv-x="602" d="M-131 1686l184 219l369 -263l-115 -141zM150 0v1425h315v-1425h-315z" />
<glyph unicode="&#xcd;" horiz-adv-x="602" d="M150 0v1425h315v-1425h-315zM178 1642l369 263l184 -219l-438 -185z" />
<glyph unicode="&#xce;" horiz-adv-x="602" d="M-96 1608l305 245h201l309 -245l-105 -121l-305 162l-307 -160zM150 0v1425h315v-1425h-315z" />
<glyph unicode="&#xcf;" horiz-adv-x="602" d="M-74 1524v272h314v-272h-314zM150 0v1425h315v-1425h-315zM367 1524v272h311v-272h-311z" />
<glyph unicode="&#xd0;" horiz-adv-x="1345" d="M12 614v220h131v591h568q167 0 293.5 -65t191.5 -199q35 -71 45 -168.5t10 -255.5q0 -174 -9.5 -276t-41.5 -178q-124 -283 -524 -283h-533v614h-131zM459 283h207q150 0 211 78t61 227v260q0 150 -66 221.5t-213 71.5h-200v-307h223v-220h-223v-331z" />
<glyph unicode="&#xd1;" horiz-adv-x="1454" d="M143 0v1425h281l299 -436l274 -428l4 2v862h316v-1425h-281l-362 524l-211 340l-4 -2v-862h-316zM299 1581q56 115 119 172t151 57q45 -1 99.5 -26t101 -49.5t72.5 -24.5q35 0 66 22.5t71 75.5l139 -82q-53 -116 -114 -169.5t-134 -53.5q-47 0 -102.5 24t-104 48 t-79.5 24q-77 0 -152 -102z" />
<glyph unicode="&#xd2;" horiz-adv-x="1277" d="M84 545v336q0 113 34.5 211.5t101 176t173.5 122.5t242 45q254 0 406.5 -156t152.5 -399v-336q0 -254 -152.5 -405.5t-406.5 -151.5q-135 0 -242 45t-173.5 122.5t-101 177t-34.5 212.5zM266 1686l185 219l368 -263l-114 -141zM401 522q0 -100 60 -169.5t172 -69.5 q111 0 175 67.5t64 171.5v387q0 98 -64.5 165t-174.5 67q-112 0 -172 -68t-60 -164v-387z" />
<glyph unicode="&#xd3;" horiz-adv-x="1277" d="M84 545v336q0 113 34.5 211.5t101 176t173.5 122.5t242 45q254 0 406.5 -156t152.5 -399v-336q0 -254 -152.5 -405.5t-406.5 -151.5q-135 0 -242 45t-173.5 122.5t-101 177t-34.5 212.5zM401 522q0 -100 60 -169.5t172 -69.5q111 0 175 67.5t64 171.5v387q0 98 -64.5 165 t-174.5 67q-112 0 -172 -68t-60 -164v-387zM412 1642l368 263l185 -219l-439 -185z" />
<glyph unicode="&#xd4;" horiz-adv-x="1277" d="M84 545v336q0 113 34.5 211.5t101 176t173.5 122.5t242 45q254 0 406.5 -156t152.5 -399v-336q0 -254 -152.5 -405.5t-406.5 -151.5q-135 0 -242 45t-173.5 122.5t-101 177t-34.5 212.5zM231 1608l306 245h200l310 -245l-105 -121l-305 162l-307 -160zM401 522 q0 -100 60 -169.5t172 -69.5q111 0 175 67.5t64 171.5v387q0 98 -64.5 165t-174.5 67q-112 0 -172 -68t-60 -164v-387z" />
<glyph unicode="&#xd5;" horiz-adv-x="1277" d="M84 545v336q0 113 34.5 211.5t101 176t173.5 122.5t242 45q254 0 406.5 -156t152.5 -399v-336q0 -254 -152.5 -405.5t-406.5 -151.5q-135 0 -242 45t-173.5 122.5t-101 177t-34.5 212.5zM223 1575q55 115 119 172t152 57q45 -1 99 -26t100.5 -49.5t72.5 -24.5 q35 0 66 22.5t71 75.5l139 -82q-53 -116 -113.5 -169.5t-133.5 -53.5q-47 0 -103 24t-104.5 48t-79.5 24q-77 0 -152 -102zM401 522q0 -100 60 -169.5t172 -69.5q111 0 175 67.5t64 171.5v387q0 98 -64.5 165t-174.5 67q-112 0 -172 -68t-60 -164v-387z" />
<glyph unicode="&#xd6;" horiz-adv-x="1277" d="M84 545v336q0 113 34.5 211.5t101 176t173.5 122.5t242 45q254 0 406.5 -156t152.5 -399v-336q0 -254 -152.5 -405.5t-406.5 -151.5q-135 0 -242 45t-173.5 122.5t-101 177t-34.5 212.5zM268 1524v272h314v-272h-314zM401 522q0 -100 60 -169.5t172 -69.5q111 0 175 67.5 t64 171.5v387q0 98 -64.5 165t-174.5 67q-112 0 -172 -68t-60 -164v-387zM709 1524v272h311v-272h-311z" />
<glyph unicode="&#xd7;" d="M68 954l168 168l339 -340l322 324l180 -180l-323 -322l340 -340l-168 -168l-340 340l-328 -327l-178 178l328 327z" />
<glyph unicode="&#xd8;" horiz-adv-x="1277" d="M80 61l102 140q-98 138 -98 344v336q0 113 34.5 211.5t101 176t173.5 122.5t242 45q217 0 364 -119l91 125l104 -76l-104 -141q104 -144 104 -344v-336q0 -254 -152.5 -405.5t-406.5 -151.5q-227 0 -367 121l-88 -119zM401 502l414 563q-66 76 -182 76q-112 0 -172 -68 t-60 -164v-387v-20zM453 360q64 -77 180 -77q111 0 175 67.5t64 171.5v387q0 3 -1 9.5t-1 9.5z" />
<glyph unicode="&#xd9;" horiz-adv-x="1345" d="M119 516v909h313v-886q0 -118 69.5 -187t172.5 -69q107 0 173 61t66 176v905h316v-927q0 -149 -75 -266t-201.5 -179.5t-278.5 -62.5q-153 0 -279 64.5t-201 185.5t-75 276zM262 1686l184 219l369 -263l-115 -141z" />
<glyph unicode="&#xda;" horiz-adv-x="1345" d="M119 516v909h313v-886q0 -118 69.5 -187t172.5 -69q107 0 173 61t66 176v905h316v-927q0 -149 -75 -266t-201.5 -179.5t-278.5 -62.5q-153 0 -279 64.5t-201 185.5t-75 276zM498 1642l368 263l185 -219l-439 -185z" />
<glyph unicode="&#xdb;" horiz-adv-x="1345" d="M119 516v909h313v-886q0 -118 69.5 -187t172.5 -69q107 0 173 61t66 176v905h316v-927q0 -149 -75 -266t-201.5 -179.5t-278.5 -62.5q-153 0 -279 64.5t-201 185.5t-75 276zM268 1608l305 245h201l309 -245l-104 -121l-305 162l-307 -160z" />
<glyph unicode="&#xdc;" horiz-adv-x="1345" d="M119 516v909h313v-886q0 -118 69.5 -187t172.5 -69q107 0 173 61t66 176v905h316v-927q0 -149 -75 -266t-201.5 -179.5t-278.5 -62.5q-153 0 -279 64.5t-201 185.5t-75 276zM305 1524v272h313v-272h-313zM745 1524v272h312v-272h-312z" />
<glyph unicode="&#xdd;" horiz-adv-x="1239" d="M14 1425h338l146 -307l123 -276h8l121 274l147 309h338l-461 -841v-584h-301v584zM459 1642l368 263l185 -219l-439 -185z" />
<glyph unicode="&#xde;" horiz-adv-x="1247" d="M143 0v1425h316v-251h252q229 0 374.5 -125t145.5 -334q0 -191 -144 -319t-350 -128h-278v-268h-316zM459 551h270q80 0 134.5 47t54.5 123q0 85 -51 127.5t-146 42.5h-262v-340z" />
<glyph unicode="&#xdf;" horiz-adv-x="1159" d="M119 0v1061q0 201 123 311.5t325 110.5q111 0 196.5 -33.5t134 -89t72 -119t23.5 -131.5q0 -76 -33 -150.5t-110 -107.5v-6q61 -18 106 -59.5t67.5 -93.5t33 -101t10.5 -96q0 -69 -10.5 -132t-42 -131.5t-80.5 -118t-133.5 -82t-194.5 -32.5h-63v244h47q75 0 123.5 59.5 t48.5 175.5q0 30 -1.5 51.5t-6 52.5t-15.5 53t-28 42.5t-46 31.5t-67 11v213q60 0 90.5 45t30.5 98q0 24 -5.5 48t-19.5 51t-46 44t-77 17q-79 0 -117 -49.5t-38 -120.5v-1067h-297z" />
<glyph unicode="&#xe0;" horiz-adv-x="1056" d="M72 301q0 135 97.5 224t268.5 89h230v33q0 123 -170 123q-148 0 -240 -80l-141 199q85 77 186.5 106t224.5 29q430 0 430 -346v-678h-290v94l-6 2q-49 -57 -118 -81.5t-132 -24.5q-155 0 -247.5 77.5t-92.5 233.5zM233 1481l275 94l190 -397l-166 -78zM352 326 q0 -13 5.5 -27t19 -30.5t43.5 -27t72 -10.5q74 0 125 35t51 103v32h-193q-123 0 -123 -75z" />
<glyph unicode="&#xe1;" horiz-adv-x="1056" d="M72 301q0 135 97.5 224t268.5 89h230v33q0 123 -170 123q-148 0 -240 -80l-141 199q85 77 186.5 106t224.5 29q430 0 430 -346v-678h-290v94l-6 2q-49 -57 -118 -81.5t-132 -24.5q-155 0 -247.5 77.5t-92.5 233.5zM352 326q0 -13 5.5 -27t19 -30.5t43.5 -27t72 -10.5 q74 0 125 35t51 103v32h-193q-123 0 -123 -75zM410 1161l174 416l272 -88l-276 -389z" />
<glyph unicode="&#xe2;" horiz-adv-x="1056" d="M72 301q0 135 97.5 224t268.5 89h230v33q0 123 -170 123q-148 0 -240 -80l-141 199q85 77 186.5 106t224.5 29q430 0 430 -346v-678h-290v94l-6 2q-49 -57 -118 -81.5t-132 -24.5q-155 0 -247.5 77.5t-92.5 233.5zM115 1167l301 318h211l303 -318l-115 -100l-295 213 q-241 -172 -297 -211zM352 326q0 -13 5.5 -27t19 -30.5t43.5 -27t72 -10.5q74 0 125 35t51 103v32h-193q-123 0 -123 -75z" />
<glyph unicode="&#xe3;" horiz-adv-x="1056" d="M72 301q0 135 97.5 224t268.5 89h230v33q0 123 -170 123q-148 0 -240 -80l-141 199q85 77 186.5 106t224.5 29q430 0 430 -346v-678h-290v94l-6 2q-49 -57 -118 -81.5t-132 -24.5q-155 0 -247.5 77.5t-92.5 233.5zM127 1227q56 115 119 172t151 57q45 -1 99.5 -26 t101 -49.5t72.5 -24.5q35 0 66 22.5t71 75.5l139 -82q-53 -116 -114 -169.5t-134 -53.5q-47 0 -102.5 24t-104 48t-79.5 24q-77 0 -152 -102zM352 326q0 -13 5.5 -27t19 -30.5t43.5 -27t72 -10.5q74 0 125 35t51 103v32h-193q-123 0 -123 -75z" />
<glyph unicode="&#xe4;" horiz-adv-x="1056" d="M72 301q0 135 97.5 224t268.5 89h230v33q0 123 -170 123q-148 0 -240 -80l-141 199q85 77 186.5 106t224.5 29q430 0 430 -346v-678h-290v94l-6 2q-49 -57 -118 -81.5t-132 -24.5q-155 0 -247.5 77.5t-92.5 233.5zM156 1165v267h303v-267h-303zM352 326q0 -13 5.5 -27 t19 -30.5t43.5 -27t72 -10.5q74 0 125 35t51 103v32h-193q-123 0 -123 -75zM602 1165v267h305v-267h-305z" />
<glyph unicode="&#xe5;" horiz-adv-x="1056" d="M72 301q0 135 97.5 224t268.5 89h230v33q0 123 -170 123q-148 0 -240 -80l-141 199q85 77 186.5 106t224.5 29q430 0 430 -346v-678h-290v94l-6 2q-49 -57 -118 -81.5t-132 -24.5q-155 0 -247.5 77.5t-92.5 233.5zM293 1317q0 98 75 167.5t181 69.5q104 0 179 -69.5 t75 -167.5t-75 -168t-181 -70q-104 0 -179 70t-75 168zM352 326q0 -13 5.5 -27t19 -30.5t43.5 -27t72 -10.5q74 0 125 35t51 103v32h-193q-123 0 -123 -75zM465 1317q0 -32 24.5 -55t59.5 -23q34 0 58 23t24 55t-24 54t-58 22q-35 0 -59.5 -22t-24.5 -54z" />
<glyph unicode="&#xe6;" horiz-adv-x="1705" d="M72 301q0 135 97.5 224t268.5 89h230v33q0 21 -6.5 41t-23.5 43.5t-55 38t-91 14.5q-162 0 -252 -90l-131 189q73 81 171.5 111t221.5 30q249 0 344 -111q54 57 129 84t153 27q157 0 265 -67.5t158.5 -183t50.5 -271.5v-72h-625q13 -95 61 -135.5t127 -40.5q107 0 209 92 l180 -201q-168 -155 -405 -155q-230 0 -358 133q-140 -133 -359 -133q-76 0 -140 18.5t-114 55.5t-78 97.5t-28 139.5zM352 326q0 -13 5.5 -27t19 -30.5t43.5 -27t72 -10.5q74 0 125 35t51 103v32h-193q-123 0 -123 -75zM987 618h307q-7 66 -51.5 104t-103.5 38 q-57 0 -99.5 -38t-52.5 -104z" />
<glyph unicode="&#xe7;" horiz-adv-x="948" d="M57 506q0 132 40 234t109 162.5t154 91t183 30.5q214 0 358 -147l-188 -199q-87 84 -170 84q-90 0 -135.5 -61.5t-45.5 -194.5q0 -134 41.5 -193t133.5 -59q87 0 180 86l192 -197q-161 -146 -362 -155l-21 -62q100 -11 148.5 -63.5t48.5 -120.5q0 -77 -68 -135t-178 -58 q-133 0 -229 60l51 127q76 -37 152 -37q34 0 57.5 16t23.5 45q0 26 -18 39t-40 12t-40 -10l-80 41l49 158q-157 36 -251.5 162.5t-94.5 343.5z" />
<glyph unicode="&#xe8;" horiz-adv-x="1091" d="M72 504q0 111 26.5 200.5t71 148t105 98t125 56.5t135.5 17q118 0 208 -38.5t146 -108.5t84 -164.5t28 -210.5v-72h-626q9 -95 51.5 -136.5t118.5 -41.5q49 0 111 21.5t118 72.5l180 -201q-90 -83 -199.5 -120t-217.5 -37q-71 0 -134.5 14t-125.5 50.5t-106 93 t-71.5 148.5t-27.5 210zM227 1481l275 94l190 -397l-166 -78zM385 618h301q-7 67 -49.5 106.5t-99.5 39.5t-99.5 -40t-52.5 -106z" />
<glyph unicode="&#xe9;" horiz-adv-x="1091" d="M72 504q0 111 26.5 200.5t71 148t105 98t125 56.5t135.5 17q118 0 208 -38.5t146 -108.5t84 -164.5t28 -210.5v-72h-626q9 -95 51.5 -136.5t118.5 -41.5q49 0 111 21.5t118 72.5l180 -201q-90 -83 -199.5 -120t-217.5 -37q-71 0 -134.5 14t-125.5 50.5t-106 93 t-71.5 148.5t-27.5 210zM385 618h301q-7 67 -49.5 106.5t-99.5 39.5t-99.5 -40t-52.5 -106zM399 1161l174 416l273 -88l-277 -389z" />
<glyph unicode="&#xea;" horiz-adv-x="1091" d="M72 504q0 111 26.5 200.5t71 148t105 98t125 56.5t135.5 17q118 0 208 -38.5t146 -108.5t84 -164.5t28 -210.5v-72h-626q9 -95 51.5 -136.5t118.5 -41.5q49 0 111 21.5t118 72.5l180 -201q-90 -83 -199.5 -120t-217.5 -37q-71 0 -134.5 14t-125.5 50.5t-106 93 t-71.5 148.5t-27.5 210zM137 1167l301 318h211l303 -318l-114 -100l-295 213q-241 -172 -297 -211zM385 618h301q-7 67 -49.5 106.5t-99.5 39.5t-99.5 -40t-52.5 -106z" />
<glyph unicode="&#xeb;" horiz-adv-x="1091" d="M72 504q0 111 26.5 200.5t71 148t105 98t125 56.5t135.5 17q118 0 208 -38.5t146 -108.5t84 -164.5t28 -210.5v-72h-626q9 -95 51.5 -136.5t118.5 -41.5q49 0 111 21.5t118 72.5l180 -201q-90 -83 -199.5 -120t-217.5 -37q-71 0 -134.5 14t-125.5 50.5t-106 93 t-71.5 148.5t-27.5 210zM156 1165v267h303v-267h-303zM385 618h301q-7 67 -49.5 106.5t-99.5 39.5t-99.5 -40t-52.5 -106zM602 1165v267h305v-267h-305z" />
<glyph unicode="&#xec;" horiz-adv-x="550" d="M-66 1481l275 94l190 -397l-166 -78zM129 0v1014h293v-1014h-293z" />
<glyph unicode="&#xed;" horiz-adv-x="550" d="M129 0v1014h293v-1014h-293zM137 1161l174 416l273 -88l-277 -389z" />
<glyph unicode="&#xee;" horiz-adv-x="731" d="M-43 1167l301 318h211l303 -318l-115 -100l-295 213q-275 -196 -296 -211zM213 0v1014h293v-1014h-293z" />
<glyph unicode="&#xef;" horiz-adv-x="669" d="M-41 1165v267h303v-267h-303zM188 0v1014h293v-1014h-293zM406 1165v267h305v-267h-305z" />
<glyph unicode="&#xf0;" horiz-adv-x="1099" d="M59 483q0 70 12.5 135t44.5 131.5t81 115.5t128.5 79.5t180.5 30.5q74 -2 145.5 -37t100.5 -84l8 2q-8 188 -76 270l-100 -86l-95 103l99 86q-99 69 -262 82l43 227q274 -22 424 -154l125 109l102 -98l-125 -109q82 -108 111.5 -262t29.5 -369q0 -110 -18 -207 t-58.5 -182.5t-100.5 -147t-148 -97t-197 -35.5q-119 0 -208.5 38.5t-142.5 107.5t-78.5 156.5t-25.5 194.5zM362 469q0 -110 48 -170q36 -45 108 -45q38 0 70.5 18.5t50.5 46.5q35 57 35 168q0 103 -38.5 161.5t-117.5 58.5q-80 0 -118 -64.5t-38 -173.5z" />
<glyph unicode="&#xf1;" horiz-adv-x="1128" d="M123 0v1014h293v-84h4q44 41 115.5 67.5t130.5 26.5q165 0 251.5 -93.5t86.5 -271.5v-659h-291v598q0 74 -40 115t-104 41q-67 0 -110 -41t-43 -115v-598h-293zM125 1227q56 115 119 172t151 57q45 -1 99.5 -26t101 -49.5t72.5 -24.5q35 0 66 22.5t71 75.5l139 -82 q-53 -116 -114 -169.5t-134 -53.5q-47 0 -102.5 24t-104 48t-79.5 24q-77 0 -152 -102z" />
<glyph unicode="&#xf2;" horiz-adv-x="1056" d="M68 508q3 180 53 285q53 112 165 172.5t257 60.5q118 0 214 -44t152 -126q83 -123 80 -354q0 -189 -78 -320q-61 -98 -165.5 -147t-229.5 -49q-252 0 -362 161q-89 131 -86 361zM229 1481l275 94l190 -397l-166 -78zM367 504q0 -111 28 -168q41 -84 129 -84q53 0 91 28 t55 82q18 65 18 146q3 109 -24 168q-18 43 -53.5 65.5t-78.5 22.5t-79 -23.5t-56 -64.5q-27 -57 -30 -172z" />
<glyph unicode="&#xf3;" horiz-adv-x="1056" d="M68 508q3 180 53 285q53 112 165 172.5t257 60.5q118 0 214 -44t152 -126q83 -123 80 -354q0 -189 -78 -320q-61 -98 -165.5 -147t-229.5 -49q-252 0 -362 161q-89 131 -86 361zM367 504q0 -111 28 -168q41 -84 129 -84q53 0 91 28t55 82q18 65 18 146q3 109 -24 168 q-18 43 -53.5 65.5t-78.5 22.5t-79 -23.5t-56 -64.5q-27 -57 -30 -172zM418 1161l174 416l272 -88l-276 -389z" />
<glyph unicode="&#xf4;" horiz-adv-x="1056" d="M68 508q3 180 53 285q53 112 165 172.5t257 60.5q118 0 214 -44t152 -126q83 -123 80 -354q0 -189 -78 -320q-61 -98 -165.5 -147t-229.5 -49q-252 0 -362 161q-89 131 -86 361zM129 1167l301 318h211l303 -318l-115 -100l-294 213q-241 -172 -297 -211zM367 504 q0 -111 28 -168q41 -84 129 -84q53 0 91 28t55 82q18 65 18 146q3 109 -24 168q-18 43 -53.5 65.5t-78.5 22.5t-79 -23.5t-56 -64.5q-27 -57 -30 -172z" />
<glyph unicode="&#xf5;" horiz-adv-x="1056" d="M68 508q3 180 53 285q53 112 165 172.5t257 60.5q118 0 214 -44t152 -126q83 -123 80 -354q0 -189 -78 -320q-61 -98 -165.5 -147t-229.5 -49q-252 0 -362 161q-89 131 -86 361zM121 1227q56 115 119 172t151 57q45 -1 99.5 -26t101 -49.5t72.5 -24.5q35 0 66 22.5 t71 75.5l139 -82q-53 -116 -114 -169.5t-134 -53.5q-47 0 -102.5 24t-104 48t-79.5 24q-77 0 -152 -102zM367 504q0 -111 28 -168q41 -84 129 -84q53 0 91 28t55 82q18 65 18 146q3 109 -24 168q-18 43 -53.5 65.5t-78.5 22.5t-79 -23.5t-56 -64.5q-27 -57 -30 -172z" />
<glyph unicode="&#xf6;" horiz-adv-x="1056" d="M68 508q3 180 53 285q53 112 165 172.5t257 60.5q118 0 214 -44t152 -126q83 -123 80 -354q0 -189 -78 -320q-61 -98 -165.5 -147t-229.5 -49q-252 0 -362 161q-89 131 -86 361zM156 1165v267h303v-267h-303zM367 504q0 -111 28 -168q41 -84 129 -84q53 0 91 28t55 82 q18 65 18 146q3 109 -24 168q-18 43 -53.5 65.5t-78.5 22.5t-79 -23.5t-56 -64.5q-27 -57 -30 -172zM602 1165v267h305v-267h-305z" />
<glyph unicode="&#xf7;" d="M37 492v237h1053v-237h-1053zM381 166q0 70 53.5 120t128.5 50t128.5 -50t53.5 -120q0 -72 -53.5 -122t-128.5 -50t-128.5 50t-53.5 122zM381 1034q0 72 53.5 122t128.5 50t128.5 -50t53.5 -122q0 -70 -53.5 -120t-128.5 -50t-128.5 50t-53.5 120z" />
<glyph unicode="&#xf8;" horiz-adv-x="1056" d="M68 39l90 102q-4 4 -4 6q-89 131 -86 361q3 180 53 285q53 112 165 172.5t257 60.5q185 0 301 -98l88 102l67 -59l-96 -109l6 -6q83 -123 80 -354q0 -189 -78 -320q-61 -98 -165.5 -147t-229.5 -49q-190 0 -301 92l-82 -94zM367 504q0 -70 8 -111l272 312q-41 59 -115 59 q-43 0 -79 -23.5t-56 -64.5q-27 -57 -30 -172zM414 303q42 -51 110 -51q53 0 91 28t55 82q18 65 18 146q0 56 -6 100z" />
<glyph unicode="&#xf9;" horiz-adv-x="1128" d="M125 352v662h293v-600q0 -75 39 -115.5t102 -40.5q67 0 111.5 41t44.5 115v600h293v-1014h-293v86h-4q-39 -45 -109 -71.5t-131 -26.5q-162 0 -254 94t-92 270zM246 1481l274 94l191 -397l-166 -78z" />
<glyph unicode="&#xfa;" horiz-adv-x="1128" d="M125 352v662h293v-600q0 -75 39 -115.5t102 -40.5q67 0 111.5 41t44.5 115v600h293v-1014h-293v86h-4q-39 -45 -109 -71.5t-131 -26.5q-162 0 -254 94t-92 270zM449 1161l174 416l272 -88l-277 -389z" />
<glyph unicode="&#xfb;" horiz-adv-x="1128" d="M125 352v662h293v-600q0 -75 39 -115.5t102 -40.5q67 0 111.5 41t44.5 115v600h293v-1014h-293v86h-4q-39 -45 -109 -71.5t-131 -26.5q-162 0 -254 94t-92 270zM156 1167l301 318h211l303 -318l-115 -100l-295 213q-241 -172 -297 -211z" />
<glyph unicode="&#xfc;" horiz-adv-x="1128" d="M125 352v662h293v-600q0 -75 39 -115.5t102 -40.5q67 0 111.5 41t44.5 115v600h293v-1014h-293v86h-4q-39 -45 -109 -71.5t-131 -26.5q-162 0 -254 94t-92 270zM180 1165v267h303v-267h-303zM627 1165v267h305v-267h-305z" />
<glyph unicode="&#xfd;" horiz-adv-x="1028" d="M0 1014h313l99 -289l98 -319h8l96 315l103 293h311l-459 -1211q-79 -213 -321 -213h-117v240h76q84 0 117 100l49 152zM422 1161l174 416l272 -88l-276 -389z" />
<glyph unicode="&#xfe;" horiz-adv-x="1091" d="M129 -414v1903h291v-547l6 -2q77 82 201 82q73 0 132 -19t98.5 -49t69.5 -75.5t46.5 -91t26.5 -102.5t13 -103t3 -99q0 -69 -9.5 -132.5t-36.5 -131.5t-69.5 -117.5t-116 -81.5t-168.5 -32q-50 0 -103 26t-87 66l-6 -2v-492h-291zM420 504q0 -37 2 -66t11 -65.5t24 -60.5 t43 -41t67 -17q48 0 80 22.5t46 63t19 78t5 86.5q0 32 -1.5 55.5t-5.5 55.5t-14.5 54.5t-26 43.5t-42 32t-60.5 11q-40 0 -68.5 -17.5t-43.5 -42t-23 -62.5t-10 -65.5t-2 -64.5z" />
<glyph unicode="&#xff;" horiz-adv-x="1028" d="M0 1014h313l99 -289l98 -319h8l96 315l103 293h311l-459 -1211q-79 -213 -321 -213h-117v240h76q84 0 117 100l49 152zM121 1165v267h303v-267h-303zM567 1165v267h305v-267h-305z" />
<glyph unicode="&#x152;" horiz-adv-x="1806" d="M84 545v336q0 113 34.5 211.5t101 176t173.5 122.5t242 45q49 0 117 -11h1007v-282h-692v-289h590v-272h-590v-299h692v-283h-989q-64 -12 -135 -12q-135 0 -242 45t-173.5 122.5t-101 177t-34.5 212.5zM401 522q0 -100 60 -169.5t172 -69.5q65 0 119 26v805 q-59 27 -119 27q-112 0 -172 -68t-60 -164v-387z" />
<glyph unicode="&#x153;" horiz-adv-x="1722" d="M72 508q3 175 53 280q54 113 166 175.5t256 62.5q99 0 181.5 -35.5t129.5 -109.5q90 143 307 143q157 0 263.5 -68t155 -183t48.5 -271v-72h-626q9 -95 51.5 -136.5t118.5 -41.5q49 0 111 21.5t118 72.5l180 -201q-90 -83 -199.5 -120t-218.5 -37q-94 0 -180 37.5 t-143 115.5q-50 -75 -139 -115t-185 -40q-248 0 -362 166q-89 131 -86 356zM367 504q0 -111 28 -168q41 -84 133 -84q53 0 93 28.5t57 81.5q18 65 18 146q3 109 -24 168q-18 43 -55 65.5t-80 22.5q-97 0 -140 -88q-27 -57 -30 -172zM1016 618h301q-7 67 -50 106.5t-100 39.5 q-56 0 -98.5 -40t-52.5 -106z" />
<glyph unicode="&#x178;" horiz-adv-x="1239" d="M14 1425h338l146 -307l123 -276h8l121 274l147 309h338l-461 -841v-584h-301v584zM250 1524v272h313v-272h-313zM690 1524v272h311v-272h-311z" />
<glyph unicode="&#x2c6;" horiz-adv-x="1056" d="M115 1167l301 318h211l303 -318l-115 -100l-295 213q-241 -172 -297 -211z" />
<glyph unicode="&#x2dc;" horiz-adv-x="1056" d="M137 1227q55 115 119 172t152 57q45 -1 99 -26t100.5 -49.5t72.5 -24.5q35 0 66 22.5t71 75.5l139 -82q-53 -116 -113.5 -169.5t-133.5 -53.5q-47 0 -103 24t-104.5 48t-79.5 24q-77 0 -152 -102z" />
<glyph unicode="&#x2000;" horiz-adv-x="969" />
<glyph unicode="&#x2001;" horiz-adv-x="1939" />
<glyph unicode="&#x2002;" horiz-adv-x="969" />
<glyph unicode="&#x2003;" horiz-adv-x="1939" />
<glyph unicode="&#x2004;" horiz-adv-x="646" />
<glyph unicode="&#x2005;" horiz-adv-x="484" />
<glyph unicode="&#x2006;" horiz-adv-x="323" />
<glyph unicode="&#x2007;" horiz-adv-x="323" />
<glyph unicode="&#x2008;" horiz-adv-x="242" />
<glyph unicode="&#x2009;" horiz-adv-x="387" />
<glyph unicode="&#x200a;" horiz-adv-x="107" />
<glyph unicode="&#x2010;" horiz-adv-x="901" d="M96 393v269h709v-269h-709z" />
<glyph unicode="&#x2011;" horiz-adv-x="901" d="M96 393v269h709v-269h-709z" />
<glyph unicode="&#x2012;" horiz-adv-x="901" d="M96 393v269h709v-269h-709z" />
<glyph unicode="&#x2013;" horiz-adv-x="1075" d="M41 449v253h993v-253h-993z" />
<glyph unicode="&#x2014;" horiz-adv-x="2150" d="M41 449v253h2068v-253h-2068z" />
<glyph unicode="&#x2018;" horiz-adv-x="581" d="M102 838v323l201 324h150l-78 -307h74v-340h-347z" />
<glyph unicode="&#x2019;" horiz-adv-x="581" d="M102 838l78 307h-74v340h347v-324l-201 -323h-150z" />
<glyph unicode="&#x201a;" horiz-adv-x="612" d="M129 -307l78 307h-74v340h346v-324l-200 -323h-150z" />
<glyph unicode="&#x201c;" horiz-adv-x="905" d="M61 838v323l201 324h150l-78 -307h74v-340h-347zM485 838v323l201 324h150l-78 -307h73v-340h-346z" />
<glyph unicode="&#x201d;" horiz-adv-x="905" d="M61 838l78 307h-73v340h346v-324l-201 -323h-150zM485 838l78 307h-74v340h347v-324l-201 -323h-150z" />
<glyph unicode="&#x201e;" horiz-adv-x="1036" d="M129 -307l78 307h-74v340h346v-324l-200 -323h-150zM553 -307l78 307h-74v340h346v-324l-201 -323h-149z" />
<glyph unicode="&#x2022;" horiz-adv-x="976" d="M193 575q0 134 95 229t228 95q134 0 229 -95.5t95 -228.5t-95 -228t-229 -95t-228.5 95t-94.5 228z" />
<glyph unicode="&#x2026;" horiz-adv-x="2105" d="M174 0v338h346v-338h-346zM895 0v338h346v-338h-346zM1575 0v338h346v-338h-346z" />
<glyph unicode="&#x202f;" horiz-adv-x="387" />
<glyph unicode="&#x2039;" horiz-adv-x="827" d="M94 459l299 438h287l-293 -438l293 -439h-287z" />
<glyph unicode="&#x203a;" horiz-adv-x="827" d="M94 20l293 439l-293 438h287l299 -438l-299 -439h-287z" />
<glyph unicode="&#x205f;" horiz-adv-x="484" />
<glyph unicode="&#x20ac;" d="M35 504v176h76v49h-76v174h76q12 243 153.5 381.5t360.5 138.5q171 0 291 -90.5t182 -253.5l-281 -112q-24 70 -77 110.5t-115 40.5q-94 0 -142 -47.5t-63 -167.5h342v-174h-346v-49h346v-176h-342q11 -115 64 -164t141 -49q63 0 114.5 41t75.5 114l295 -84 q-61 -177 -183 -275.5t-302 -98.5q-225 0 -363 128.5t-151 387.5h-76z" />
<glyph unicode="&#x2122;" horiz-adv-x="1875" d="M76 1229v196h723v-196h-254v-668h-215v668h-254zM893 561v862h188l222 -477l208 477h197v-862h-207l-4 365l-117 -252h-161l-119 254v-367h-207z" />
<glyph unicode="&#x25fc;" horiz-adv-x="1013" d="M0 0v1014h1014v-1014h-1014z" />
</font>
</defs>
</svg>
