<?xml version="1.0" standalone="no"?>
<!DOCTYPE svg PUBLIC "-//W3C//DTD SVG 1.1//EN" "http://www.w3.org/Graphics/SVG/1.1/DTD/svg11.dtd" >
<svg xmlns="http://www.w3.org/2000/svg" xmlns:xlink="http://www.w3.org/1999/xlink" version="1.1">
<metadata></metadata>
<defs>
<font id="pf_dintext_prothin" horiz-adv-x="956" >
<font-face units-per-em="2048" ascent="1536" descent="-512" />
<missing-glyph horiz-adv-x="452" />
<glyph unicode="&#xfb01;" horiz-adv-x="878" d="M63 940v76h121v211q0 140 76 201t199 61q172 0 276 -107l-61 -63q-48 48 -99 65t-120 17q-89 0 -134 -43t-45 -137v-205h443v-1016h-90v940h-353v-940h-92v940h-121z" />
<glyph unicode="&#xfb02;" horiz-adv-x="929" d="M61 938v78h123v209q0 132 76 198t199 66q115 0 260 -64v-1202q0 -145 158 -145h16v-78h-31q-115 0 -174 48.5t-59 160.5q-1 459 -0.5 781t0.5 374q-70 37 -176 37q-89 0 -134 -43t-45 -137v-205h242v-78h-242v-938h-90v938h-123z" />
<glyph unicode="&#xfb03;" horiz-adv-x="1327" d="M63 940v76h121v162q0 73 22 126t61 82.5t86.5 42.5t105.5 13q123 0 217 -58q66 95 225 95q178 0 277 -107l-62 -63q-47 47 -98 64.5t-121 17.5q-89 0 -133.5 -43t-44.5 -138v-194h444v-1016h-92v940h-352v-940h-90v940h-353v-940h-92v940h-121zM276 1016h353v198 q0 53 8 89q-70 53 -182 53q-89 0 -134 -43.5t-45 -138.5v-158z" />
<glyph unicode="&#xfb04;" horiz-adv-x="1374" d="M63 940v76h121v162q0 73 22 126t61 82.5t86.5 42.5t105.5 13q123 0 211 -56q66 103 233 103q115 0 260 -64v-1202q0 -145 158 -145h16v-78h-30q-115 0 -174.5 48.5t-59.5 160.5v1155q-70 37 -176 37q-89 0 -133.5 -43t-44.5 -137v-205h239v-76h-239v-940h-90v940h-353 v-940h-92v940h-121zM276 1016h353v211q0 41 6 76q-70 53 -180 53q-89 0 -134 -43.5t-45 -138.5v-158z" />
<glyph horiz-adv-x="0" />
<glyph horiz-adv-x="682" />
<glyph unicode=" "  horiz-adv-x="452" />
<glyph unicode="&#x09;" horiz-adv-x="452" />
<glyph unicode="&#xa0;" horiz-adv-x="452" />
<glyph unicode="!" horiz-adv-x="434" d="M164 0v123h110v-123h-110zM172 1425h92l-14 -1040h-64z" />
<glyph unicode="&#x22;" horiz-adv-x="497" d="M123 1051v374h70v-374h-70zM315 1051v374h70v-374h-70z" />
<glyph unicode="#" d="M16 459v63h209q17 133 56 387h-203v64h211l59 450h68l-60 -450h297q55 381 64 450h67l-61 -450h209v-64h-217l-53 -387h210v-63h-219l-59 -459h-72l62 459h-297l-64 -459h-71l65 459h-201zM295 522h297l53 387h-297z" />
<glyph unicode="$" d="M43 131q9 11 27.5 37t27.5 37q163 -120 346 -131v602q-64 14 -115 30.5t-102.5 46.5t-86 68t-56 96t-21.5 130q0 160 103 266.5t278 116.5v153h62v-156q188 -6 336 -100q-29 -45 -47 -80q-148 86 -289 94v-583q58 -14 94 -23.5t84 -27t77.5 -36t61.5 -47.5t49.5 -64 t29 -84t11.5 -109q0 -168 -111 -270.5t-296 -110.5v-232h-62v232q-242 13 -401 145zM158 1042q0 -54 18.5 -97.5t45.5 -71t68 -49t75.5 -32.5t78.5 -20v571q-121 -8 -203.5 -87t-82.5 -214zM506 74q136 6 224.5 83t88.5 210q0 60 -18.5 107.5t-45.5 76.5t-68 51t-74.5 32 t-77.5 19q-3 1 -13.5 5t-15.5 6v-590z" />
<glyph unicode="%" horiz-adv-x="1544" d="M131 797v403q0 108 74 170t180 62q105 0 178.5 -62t73.5 -170v-403q0 -108 -73.5 -170t-178.5 -62q-106 0 -180 62t-74 170zM205 805q0 -78 50 -125t130 -47t129 47t49 125v389q0 77 -49.5 124.5t-128.5 47.5q-80 0 -130 -48t-50 -124v-389zM301 -53l870 1523h74 l-870 -1523h-74zM903 223v406q0 106 74.5 167.5t179.5 61.5t178.5 -61.5t73.5 -167.5v-406q0 -106 -73.5 -167.5t-178.5 -61.5t-179.5 61.5t-74.5 167.5zM977 231q0 -76 50 -124t130 -48q79 0 128.5 47.5t49.5 124.5v390q0 78 -49 125t-129 47t-130 -47t-50 -125v-390z" />
<glyph unicode="&#x26;" horiz-adv-x="1280" d="M154 332q0 262 313 471q-92 115 -134 193t-42 155q0 57 19 108t57 93t101.5 67t145.5 25q193 0 310 -109l-62 -69q-61 51 -119 71.5t-137 20.5q-61 0 -106.5 -19.5t-69.5 -51.5t-35.5 -66t-11.5 -70q0 -43 39 -104q115 -184 524 -725q64 110 84 286q56 -4 88 -8 q-26 -198 -112 -350l196 -250h-115l-141 180q-171 -192 -411 -192q-172 0 -276.5 94t-104.5 250zM244 340q0 -126 85.5 -198t207.5 -72q99 0 191.5 48t160.5 130q-262 343 -371 485q-124 -79 -199 -178t-75 -215z" />
<glyph unicode="'" horiz-adv-x="387" d="M160 1051v374h69v-374h-69z" />
<glyph unicode="(" horiz-adv-x="536" d="M135 614q0 230 90 459.5t238 401.5l45 -27q-127 -181 -198.5 -397.5t-71.5 -425.5q0 -222 72.5 -441t197.5 -397l-39 -31q-147 170 -240.5 397.5t-93.5 460.5z" />
<glyph unicode=")" horiz-adv-x="536" d="M55 -217q125 178 197 397t72 441q0 211 -71 426.5t-198 396.5l43 26q150 -171 240 -400.5t90 -459.5q0 -232 -93.5 -460t-238.5 -398z" />
<glyph unicode="*" horiz-adv-x="702" d="M61 1186q1 5 13 40t14 44l242 -101l-17 256h86l-16 -256l244 101l26 -86l-247 -72l165 -197q-3 -2 -34 -26t-39 -29l-142 221l-139 -223l-72 57l162 197q-14 3 -124.5 37t-121.5 37z" />
<glyph unicode="+" d="M53 535v77h385v394h76v-394h385v-77h-385v-398h-76v398h-385z" />
<glyph unicode="," horiz-adv-x="356" d="M92 -203l53 203h-32v135h125v-115q-24 -85 -86 -223h-60z" />
<glyph unicode="-" horiz-adv-x="757" d="M109 489v86h540v-86h-540z" />
<glyph unicode="." horiz-adv-x="342" d="M115 0v133h121v-133h-121z" />
<glyph unicode="/" horiz-adv-x="833" d="M2 -51l750 1521h79l-751 -1521h-78z" />
<glyph unicode="0" d="M100 367v690q0 118 53.5 205.5t138 130.5t185.5 43t185.5 -43t138 -130.5t53.5 -205.5v-690q0 -175 -109.5 -276t-267.5 -101t-267.5 101t-109.5 276zM188 381q0 -138 79.5 -223.5t209.5 -85.5t210.5 85.5t80.5 223.5v663q0 138 -80.5 223t-210.5 85t-209.5 -85 t-79.5 -223v-663z" />
<glyph unicode="1" d="M262 1188v98l207 139h92v-1425h-90v1327z" />
<glyph unicode="2" d="M92 0v90l594 768q34 44 57 109.5t23 117.5q0 112 -75 187.5t-208 75.5q-99 0 -177.5 -61.5t-104.5 -160.5l-92 15q32 131 137.5 211t236.5 80q174 0 276.5 -95.5t102.5 -244.5q0 -154 -98 -275l-561 -729h649v-88h-760z" />
<glyph unicode="3" d="M90 238l90 12q27 -85 97.5 -133.5t173.5 -48.5q133 0 229 90.5t96 234.5t-81 226.5t-206 82.5h-92v82h74q122 0 202.5 76t80.5 201q0 128 -81.5 211.5t-213.5 83.5q-87 0 -164.5 -52t-104.5 -139l-88 15q34 117 133 187.5t228 70.5q96 0 171 -30.5t120 -83t68.5 -118.5 t23.5 -141q0 -41 -10.5 -83.5t-33.5 -88.5t-66.5 -85.5t-102.5 -62.5q67 -22 115.5 -64t73 -92t35.5 -96.5t11 -91.5q0 -185 -119.5 -299t-302.5 -114q-59 0 -112.5 13t-103 40.5t-86 77.5t-54.5 119z" />
<glyph unicode="4" d="M59 229v86l508 1110h101l-516 -1110h548v441h88v-441h127v-86h-127v-229h-88v229h-641z" />
<glyph unicode="5" d="M106 236l84 18q28 -90 101 -139t180 -49q76 0 135 27.5t95 74t54.5 105t18.5 124.5v148q0 142 -72 230.5t-225 88.5q-69 0 -145.5 -41.5t-116.5 -101.5h-84v704h698v-86h-614v-510q120 115 289 115q121 0 202.5 -52.5t117.5 -138t36 -198.5v-92q0 -83 -11.5 -151.5 t-39.5 -129.5t-72 -102.5t-112.5 -65.5t-157.5 -24q-140 0 -233 62.5t-128 183.5z" />
<glyph unicode="6" d="M109 395q0 128 51 230l403 800h96l-344 -684l4 -2q37 30 89.5 46t99.5 16q151 0 257.5 -104.5t106.5 -278.5q0 -90 -22 -163.5t-59.5 -122.5t-89 -82t-108 -47.5t-118.5 -14.5q-69 0 -133.5 26t-117 75t-84 128.5t-31.5 177.5zM195 399q0 -151 79.5 -242t214.5 -91 q122 0 207.5 90t85.5 243q0 148 -83 236t-210 88q-128 0 -211 -87.5t-83 -236.5z" />
<glyph unicode="7" d="M102 1114v311h762v-90l-518 -1335h-100l522 1337h-578v-223h-88z" />
<glyph unicode="8" d="M78 385q0 64 24 130.5t79.5 128.5t133.5 91q-59 23 -102.5 60.5t-66 82.5t-32.5 88.5t-10 88.5q0 160 110 269.5t271 109.5q169 0 275 -108.5t106 -270.5q0 -103 -52 -188t-161 -132l2 -2q82 -26 138.5 -86.5t79 -127t22.5 -134.5q0 -174 -119 -285.5t-291 -111.5 t-289.5 111.5t-117.5 285.5zM164 387q0 -134 95.5 -227.5t225.5 -93.5q131 0 227.5 93t96.5 228q0 136 -96 223.5t-228 87.5q-130 0 -225.5 -87.5t-95.5 -223.5zM193 1059q0 -93 44 -160t108.5 -97t139.5 -30q120 0 207.5 74.5t87.5 212.5q0 91 -43.5 160.5t-110 103 t-141.5 33.5q-116 0 -204 -81t-88 -216z" />
<glyph unicode="9" d="M109 1014q0 90 22.5 163t60 121t88.5 80t107 46t117 14q71 0 136.5 -26t118 -75.5t84 -129t31.5 -177.5q0 -130 -51 -229l-405 -801h-99l347 678l-4 2q-81 -51 -187 -51q-153 0 -259.5 104.5t-106.5 280.5zM195 1026q0 -148 84.5 -236t212.5 -88t210 87.5t82 236.5 q0 150 -79.5 242t-212.5 92q-124 0 -210.5 -90.5t-86.5 -243.5z" />
<glyph unicode=":" horiz-adv-x="356" d="M117 0v133h121v-133h-121zM117 643v133h121v-133h-121z" />
<glyph unicode=";" horiz-adv-x="356" d="M94 -203l53 203h-32v135h125v-115q-2 -7 -4.5 -20t-4.5 -20l-77 -183h-60zM117 641v135h123v-135h-123z" />
<glyph unicode="&#x3c;" d="M61 537v73l822 373v-84l-727 -326q74 -32 356.5 -158t372.5 -165v-86z" />
<glyph unicode="=" d="M53 334v78h846v-78h-846zM53 696v76h846v-76h-846z" />
<glyph unicode="&#x3e;" d="M63 164v86q95 40 379.5 167.5t350.5 155.5l-725 326v84l819 -373v-73z" />
<glyph unicode="?" horiz-adv-x="911" d="M68 1090q40 165 151 255.5t254 90.5q165 0 268 -100.5t103 -254.5q1 -47 -11.5 -91.5t-38.5 -87t-47 -69.5t-57 -69q-9 -10 -46 -52t-50 -59.5t-36 -53t-32.5 -68t-11.5 -68.5v-135h-94v139q0 95 72 199q20 28 70 82.5t88 97t69 104t31 119.5q0 36 -8.5 72t-29.5 74.5 t-52.5 67.5t-83 48t-115.5 19q-63 0 -119.5 -28.5t-93 -72t-59.5 -90t-29 -86.5zM412 0v125h114v-125h-114z" />
<glyph unicode="@" horiz-adv-x="1585" d="M72 688q0 159 54.5 298.5t151 240.5t237 159t304.5 58q195 0 352.5 -76.5t252 -225.5t94.5 -347q0 -247 -97.5 -374.5t-253.5 -127.5q-19 0 -41 4t-51.5 13.5t-52 32.5t-29.5 56h-4q-22 -42 -72 -67.5t-96 -33t-94 -7.5q-51 0 -97 12t-86 36.5t-63.5 67t-23.5 97.5 q0 97 68.5 159t189.5 62h266v106q0 89 -47.5 134t-169.5 45q-131 0 -227 -74q-7 8 -19.5 27.5t-19.5 27.5q109 86 268 86q65 0 113 -10t89.5 -34t63 -71t21.5 -116v-361q0 -60 24.5 -93.5t91.5 -33.5q131 0 202 118.5t71 318.5q0 139 -53 252.5t-140.5 184t-195.5 108.5 t-224 38q-199 0 -355 -88.5t-242.5 -246t-86.5 -355.5q0 -212 89.5 -372t248 -244t363.5 -84q244 0 409 82q17 -38 27 -68q-232 -82 -428 -82q-226 0 -403 92t-278 267.5t-101 408.5zM526 512q0 -75 56 -117.5t153 -42.5q44 0 85 8.5t78.5 26.5t60 51t22.5 78v148h-260 q-80 0 -137.5 -40t-57.5 -112z" />
<glyph unicode="A" horiz-adv-x="1198" d="M29 0l518 1425h100q348 -950 520 -1425h-104l-123 348h-686l-123 -348h-102zM283 432h628l-184 520q-86 238 -127 357h-6q-263 -746 -311 -877z" />
<glyph unicode="B" horiz-adv-x="1198" d="M162 0v1425h518q191 0 298 -101.5t107 -260.5q0 -45 -12 -89.5t-37.5 -91t-74.5 -85t-115 -58.5v-4q93 -17 157 -77.5t89.5 -131t25.5 -145.5q0 -170 -110 -275.5t-273 -105.5h-573zM256 88h438q157 0 240.5 83t83.5 218q0 128 -84 214.5t-242 86.5h-436v-602zM256 774 h408q148 0 236.5 78.5t88.5 206.5q0 125 -86 203.5t-239 78.5h-408v-567z" />
<glyph unicode="C" horiz-adv-x="1081" d="M109 504v424q0 104 31 194.5t90 161t154.5 111.5t215.5 41q154 0 268.5 -72t171.5 -195l-86 -43q-45 99 -137 160.5t-215 61.5q-97 0 -174.5 -34t-126 -93t-73.5 -134.5t-25 -162.5v-422q0 -87 25 -163t73.5 -136t126 -94.5t174.5 -34.5q127 0 217.5 63t141.5 176l86 -39 q-55 -134 -171.5 -211t-275.5 -77q-123 0 -218.5 41.5t-154 113.5t-88.5 164t-30 199z" />
<glyph unicode="D" horiz-adv-x="1241" d="M162 0v1425h459q333 0 458 -258q31 -69 41 -170.5t10 -257.5q0 -180 -9 -285t-40 -180q-65 -148 -186 -211t-303 -63h-430zM258 88h348q118 0 203 34.5t133 100t70 148.5t22 190v293q0 134 -29.5 229t-87.5 150t-134 79.5t-177 24.5h-348v-1249z" />
<glyph unicode="E" horiz-adv-x="1081" d="M162 0v1425h864v-88h-768v-571h655v-86h-655v-592h768v-88h-864z" />
<glyph unicode="F" horiz-adv-x="1038" d="M162 0v1425h864v-88h-766v-575h653v-84h-653v-678h-98z" />
<glyph unicode="G" horiz-adv-x="1198" d="M104 504v424q0 104 31 194.5t90.5 161t155 111.5t215.5 41q156 0 270 -72t170 -195q-6 -5 -44.5 -23t-41.5 -20q-45 99 -137 160.5t-215 61.5q-97 0 -174.5 -34t-126 -93t-73.5 -134.5t-25 -162.5v-426q0 -87 25 -163t73.5 -136t126 -94.5t174.5 -34.5q118 0 209.5 57 t138.5 148.5t47 199.5v164h-321v82h418v-227q0 -219 -134.5 -363.5t-359.5 -144.5q-123 0 -219 41.5t-154.5 113.5t-88.5 164t-30 199z" />
<glyph unicode="H" horiz-adv-x="1280" d="M162 0v1425h94v-659h766v659h96v-1425h-96v680h-766v-680h-94z" />
<glyph unicode="I" horiz-adv-x="434" d="M170 0v1425h94v-1425h-94z" />
<glyph unicode="J" horiz-adv-x="917" d="M61 100l70 66q107 -88 211 -88q71 0 129.5 18.5t106.5 58.5t75 112t27 171v987h94v-1022q0 -108 -34 -190t-94 -130t-134.5 -71.5t-161.5 -23.5q-167 0 -289 112z" />
<glyph unicode="K" horiz-adv-x="1241" d="M160 0v1425h96v-909h2q45 55 165 203.5t187 228.5l391 477h107l-442 -544q65 -108 245 -412t279 -469h-109q-284 482 -477 805l-348 -428v-377h-96z" />
<glyph unicode="L" horiz-adv-x="1081" d="M162 0v1425h94v-1337h770v-88h-864z" />
<glyph unicode="M" horiz-adv-x="1517" d="M160 0v1425h96l319 -671q75 -154 193 -410h2l195 410l319 671h92v-1425h-94v1210h-2l-213 -450l-258 -537h-82l-258 541l-215 446q0 -2 -2 -2v-1208h-92z" />
<glyph unicode="N" horiz-adv-x="1357" d="M164 0v1425h98l529 -794q190 -288 309 -473q2 0 2 2v1265h94v-1425h-96l-535 803q-233 351 -303 461l-2 -2v-1262h-96z" />
<glyph unicode="O" horiz-adv-x="1169" d="M92 504v424q0 104 31 194.5t91 161t155.5 111.5t216.5 41q225 0 356 -141.5t131 -366.5v-424q0 -238 -131 -378t-356 -140q-123 0 -219 41.5t-155 113.5t-89.5 164t-30.5 199zM190 500q0 -85 25.5 -161t73.5 -135.5t125 -94.5t174 -35q178 0 282.5 120.5t104.5 313.5v416 q0 184 -104 303t-283 119q-97 0 -174 -34t-125 -92.5t-73.5 -134t-25.5 -161.5v-424z" />
<glyph unicode="P" horiz-adv-x="1136" d="M164 0v1425h508q89 0 165.5 -23t140 -70t100 -129t36.5 -191q0 -73 -26.5 -142.5t-76.5 -128.5t-133 -95t-186 -36h-432v-610h-96zM260 700h420q85 0 151 27t104 73t57.5 101t19.5 117q0 155 -95.5 237t-244.5 82h-412v-637z" />
<glyph unicode="Q" horiz-adv-x="1198" d="M94 504v424q0 104 31 194.5t90.5 161t155 111.5t215.5 41q225 0 356 -141.5t131 -366.5v-424q0 -167 -69 -293l204 -162l-53 -63q-21 15 -54.5 41.5t-78 61.5t-68.5 54q-132 -157 -368 -157q-123 0 -219 41.5t-154.5 113.5t-88.5 164t-30 199zM190 502q0 -85 25.5 -161 t73.5 -135.5t125 -94.5t174 -35q183 0 289 129l-209 168l55 65l199 -162q53 103 53 234v414q0 182 -104.5 300.5t-282.5 118.5q-128 0 -220 -58.5t-135 -151.5t-43 -209v-422z" />
<glyph unicode="R" horiz-adv-x="1198" d="M164 0v1425h551q181 0 294 -99.5t113 -268.5q0 -153 -93.5 -258t-252.5 -131l328 -668h-115l-317 662h-412v-662h-96zM260 748h424q148 0 242 81t94 228q0 73 -27 129.5t-74 89t-104.5 49t-124.5 16.5h-430v-593z" />
<glyph unicode="S" horiz-adv-x="1085" d="M43 141l57 78q196 -141 443 -141q173 0 281 76.5t108 222.5q0 47 -12.5 87t-32 68.5t-51.5 52t-61.5 39t-73 29t-75 21t-77.5 16.5q-55 10 -91 18t-85.5 23.5t-82 32.5t-68 44.5t-56 60.5t-34 80t-13.5 104q0 176 121.5 280.5t324.5 104.5q237 0 408 -109l-51 -82 q-180 101 -361 101q-148 0 -247 -74.5t-99 -220.5q0 -42 10.5 -76.5t29 -59.5t44.5 -45t57.5 -33.5t67.5 -24.5t74 -19.5t77 -16.5q14 -3 21 -4q56 -12 93.5 -21t87 -26t82 -36t68 -49t56 -66.5t34 -87.5t13.5 -113q0 -178 -132.5 -282.5t-360.5 -104.5q-284 0 -494 153z " />
<glyph unicode="T" horiz-adv-x="978" d="M16 1341v84h949v-84h-424v-1341h-95v1341h-430z" />
<glyph unicode="U" horiz-adv-x="1241" d="M133 489v936h94v-913q0 -186 108 -310t286 -124q175 0 283 112.5t108 305.5v929h98v-950q0 -219 -136.5 -353t-352.5 -134q-218 0 -353 140t-135 361z" />
<glyph unicode="V" horiz-adv-x="1081" d="M27 1425h98q148 -462 225 -694l187 -584h6q32 105 95 300t91 284l221 694h101l-469 -1425h-86q-79 237 -469 1425z" />
<glyph unicode="W" horiz-adv-x="1656" d="M41 1425h98q30 -134 92.5 -392t90.5 -382l114 -489h4q76 286 133 489l215 774h82q35 -122 106.5 -382.5t110.5 -395.5l136 -485h2l110 483l183 780h100l-350 -1425h-88l-215 770q-20 73 -67 236t-71 251h-2l-346 -1257h-90q-175 712 -348 1425z" />
<glyph unicode="X" horiz-adv-x="1024" d="M23 0l436 731l-406 694h107l352 -614l352 614h107l-408 -694l436 -731h-104l-383 651l-383 -651h-106z" />
<glyph unicode="Y" horiz-adv-x="972" d="M12 1425h101q120 -231 372 -747q77 150 150 303q138 267 223 444h98q-287 -560 -426 -835v-590h-90v590z" />
<glyph unicode="Z" horiz-adv-x="999" d="M68 0v86l757 1255h-725v84h832v-82l-758 -1255h758v-88h-864z" />
<glyph unicode="[" horiz-adv-x="479" d="M156 -223v1650h290v-71h-202v-1510h202v-69h-290z" />
<glyph unicode="\" horiz-adv-x="598" d="M-8 1485h74l516 -1571h-74z" />
<glyph unicode="]" horiz-adv-x="479" d="M72 -154h200v1510h-200v71h288v-1650h-288v69z" />
<glyph unicode="^" d="M92 682l350 737h74l346 -735h-84l-301 647q-31 -75 -149.5 -325t-149.5 -324h-86z" />
<glyph unicode="_" horiz-adv-x="1009" d="M0 -143h1010v-76h-1010v76z" />
<glyph unicode="`" horiz-adv-x="987" d="M422 1454l98 39l162 -315l-57 -25z" />
<glyph unicode="a" horiz-adv-x="970" d="M74 276q0 128 84.5 206.5t240.5 78.5h373v146q0 117 -68 176t-225 59q-176 0 -282 -98l-58 61q124 121 342 121q66 0 119.5 -8t103.5 -30t84 -56.5t54 -90.5t20 -130v-711h-90v111h-2q-77 -123 -340 -123q-155 0 -255.5 74t-100.5 214zM160 281q0 -103 75.5 -159 t206.5 -56q43 0 85 5t87.5 20t79.5 38.5t56 63t22 90.5v202h-352q-124 0 -192 -51.5t-68 -152.5z" />
<glyph unicode="b" horiz-adv-x="952" d="M96 0v1481h90v-625l9 -4q53 81 125 126.5t182 45.5q86 0 153 -29.5t109 -77t69 -115t37.5 -137.5t10.5 -149q0 -94 -12.5 -172.5t-41.5 -145.5t-73.5 -113.5t-111 -72.5t-150.5 -26q-46 0 -78 4t-74.5 18.5t-79 49t-65.5 87.5l-9 -2v-143h-90zM186 502q0 -60 6 -113 t25 -115t50 -105.5t86.5 -73t129.5 -29.5q64 0 114.5 18.5t82.5 52.5t54 74.5t33 93.5t15 99.5t4 101.5q0 65 -7 121t-27 116t-52.5 102.5t-88 69.5t-128.5 27q-81 0 -140.5 -35.5t-92.5 -98.5t-48.5 -139t-15.5 -167z" />
<glyph unicode="c" horiz-adv-x="847" d="M61 506q0 111 25.5 200t68.5 148t101.5 98.5t122 56.5t133.5 17q166 0 297 -111l-57 -67q-43 42 -104.5 69t-123.5 27q-179 0 -275.5 -113t-96.5 -325t96.5 -326t275.5 -114q61 0 122 28t106 68l57 -62q-127 -114 -297 -114q-70 0 -133.5 17t-122 56.5t-101.5 98.5 t-68.5 148t-25.5 200z" />
<glyph unicode="d" horiz-adv-x="952" d="M70 508q0 81 11 152t39 139.5t71 117.5t112.5 79t157.5 30q191 0 301 -164h4v619h88v-1481h-88v158h-4q-106 -172 -311 -172q-84 0 -149.5 27.5t-108.5 75t-71 115t-40 142t-12 162.5zM164 506q0 -436 303 -436q72 0 127.5 29t87 72.5t51.5 104t26.5 114.5t6.5 112 q0 91 -15.5 167t-49 139t-93.5 98.5t-141 35.5q-74 0 -129.5 -27.5t-88 -69.5t-52.5 -102t-26.5 -116t-6.5 -121z" />
<glyph unicode="e" horiz-adv-x="970" d="M88 502q0 100 17 181.5t47.5 137.5t69.5 97t86.5 64t93.5 33.5t96 10.5q192 0 295.5 -129t103.5 -334v-69h-723v-13q0 -65 9 -121q10 -62 36 -117.5t65.5 -94.5t100 -62t137.5 -23q124 0 246 89l51 -66q-123 -100 -293 -100q-47 0 -89 6t-87 22t-82.5 41t-71.5 65.5 t-57.5 93t-37 126t-13.5 162.5zM176 567h633q-4 188 -86 283.5t-225 95.5q-145 0 -229 -99t-93 -280z" />
<glyph unicode="f" horiz-adv-x="528" d="M63 942v74h121v225q0 116 65.5 179t166.5 63h96v-82h-78q-158 0 -158 -182v-203h236v-74h-236v-942h-92v942h-121z" />
<glyph unicode="g" horiz-adv-x="1019" d="M98 500v14q0 78 10 146q12 75 39.5 143.5t70 117t108 77t149.5 28.5q215 0 313 -172h7v162h88l2 -1010q0 -111 -35 -195.5t-96 -134t-136.5 -74t-164.5 -24.5q-155 0 -273 100l58 68q109 -86 223 -86q145 0 239.5 86t94.5 236l2 202h-4q-108 -194 -318 -194 q-85 0 -152 29.5t-108 77.5t-68 116t-37.5 137.5t-11.5 149.5zM190 506q0 -64 7 -120.5t28 -115.5t54 -100.5t89 -68.5t130 -27q79 0 138 35.5t93 98.5t50 139.5t16 166.5q0 58 -6.5 112t-26.5 114t-52 103.5t-86.5 72t-125.5 28.5q-308 0 -308 -438z" />
<glyph unicode="h" horiz-adv-x="1040" d="M131 0v1481h88v-641h6q48 91 139 137.5t189 46.5q170 0 263 -90t93 -254v-680h-90v649q0 142 -72 216.5t-212 74.5q-132 0 -224 -92t-92 -234v-614h-88z" />
<glyph unicode="i" horiz-adv-x="407" d="M152 1327v100h102v-100h-102zM160 0v1016h90v-1016h-90z" />
<glyph unicode="j" horiz-adv-x="446" d="M-16 -340h34q79 0 122.5 49.5t43.5 140.5v1164h92v-1174q0 -117 -69 -188.5t-178 -71.5h-45v80zM178 1327v98h103v-98h-103z" />
<glyph unicode="k" horiz-adv-x="980" d="M145 0v1479h88v-1069h3q67 75 538 606h107l-332 -375l418 -641h-101q-64 96 -189 289.5t-188 290.5q-152 -170 -256 -291v-289h-88z" />
<glyph unicode="l" horiz-adv-x="446" d="M145 209v1270h91v-1256q0 -145 157 -145h17v-78h-31q-115 0 -174.5 48.5t-59.5 160.5z" />
<glyph unicode="m" horiz-adv-x="1746" d="M143 0v1016h88v-168h5q46 90 133.5 133t185.5 43q122 0 205.5 -53t124.5 -150h2q53 100 147.5 151.5t214.5 51.5q155 0 250.5 -92.5t95.5 -251.5v-680h-90v649q0 139 -73 214t-201 75q-134 0 -227 -88t-93 -229v-621h-88v649q0 138 -78.5 213.5t-207.5 75.5 q-134 0 -220 -87t-86 -230v-621h-88z" />
<glyph unicode="n" horiz-adv-x="1028" d="M125 0v1014h88v-174h4q48 91 140 137.5t188 46.5q170 0 263 -90t93 -254v-680h-88v649q0 142 -72.5 216.5t-214.5 74.5q-133 0 -223 -91.5t-90 -234.5v-614h-88z" />
<glyph unicode="o" horiz-adv-x="1001" d="M90 510q0 248 111 379q114 137 309 137q108 0 192.5 -42.5t135.5 -121.5q71 -115 71 -362q0 -243 -100 -373q-109 -139 -315 -139q-189 0 -291 114q-113 128 -113 408zM180 506q0 -219 88 -332q83 -106 232 -106q157 0 243 125q37 52 56.5 122t19.5 187q0 209 -55 301 q-40 68 -107 105.5t-151 37.5q-148 0 -238 -115q-43 -55 -65.5 -130.5t-22.5 -194.5z" />
<glyph unicode="p" horiz-adv-x="1007" d="M119 -408v1424h90v-172h2q105 184 319 184q373 0 373 -522q0 -80 -11 -151t-38.5 -139.5t-70.5 -117t-112.5 -78.5t-158.5 -30q-200 0 -301 178h-2v-576h-90zM209 512q0 -91 15.5 -166t48.5 -138t92.5 -98.5t140.5 -35.5q305 0 305 434q0 54 -3.5 97t-13 97.5t-30 94.5 t-51.5 75.5t-81.5 54.5t-115.5 19q-73 0 -129.5 -29t-89.5 -73t-53.5 -104.5t-27.5 -115t-7 -112.5z" />
<glyph unicode="q" horiz-adv-x="1015" d="M100 498q0 90 12 166.5t40.5 145t72.5 116t112 75t155 27.5q200 0 299 -186h2v174h90v-1426h-90v586h-2q-50 -81 -130.5 -133.5t-189.5 -52.5q-87 0 -154 30t-107 78.5t-65.5 117t-35 136.5t-9.5 146zM190 508q0 -65 7 -121t27 -115.5t52.5 -101.5t89 -69t130.5 -27 q79 0 138 35.5t93 98t50 138.5t16 166q0 58 -6.5 113t-26.5 116t-52 105.5t-86.5 74t-125.5 29.5q-75 0 -132 -29t-89 -73t-52 -106t-26.5 -117t-6.5 -117z" />
<glyph unicode="r" horiz-adv-x="696" d="M145 0v1016h88v-174h7q93 184 313 184q95 0 152 -25l-37 -90q-61 31 -133 31q-132 0 -217 -87.5t-85 -231.5v-623h-88z" />
<glyph unicode="s" horiz-adv-x="913" d="M45 111l53 69q143 -114 361 -114q50 0 97 10.5t91.5 34t71 67t26.5 101.5q0 51 -23.5 88t-66.5 59.5t-88 34.5t-104 20q-48 7 -78 12.5t-72 15.5t-68.5 22t-56 31t-46 42.5t-27.5 56.5t-11 74q0 133 101 212t264 79q198 0 334 -92l-49 -72q-134 82 -279 82 q-124 0 -201.5 -52.5t-78.5 -148.5q0 -29 8.5 -52t21 -39.5t36.5 -30.5t44 -22t55.5 -16t60 -12t66.5 -10q56 -9 100 -19.5t93 -32t81 -51t53.5 -77t21.5 -107.5q0 -126 -103 -207t-289 -81q-238 0 -399 125z" />
<glyph unicode="t" horiz-adv-x="540" d="M49 940v76h139v268h93v-268h188v-76h-188v-694q0 -81 30.5 -123.5t118.5 -42.5h64v-80h-97q-111 0 -160 61t-49 177v702h-139z" />
<glyph unicode="u" horiz-adv-x="1058" d="M133 332v684h90v-649q0 -140 78 -217.5t211 -77.5t223 90.5t90 232.5v621h86v-1016h-88v164h-4q-32 -61 -89 -101.5t-115.5 -56.5t-120.5 -16q-161 0 -261 92.5t-100 249.5z" />
<glyph unicode="v" horiz-adv-x="888" d="M27 1012h98q28 -76 59.5 -165t68.5 -195t58 -165l131 -364h7q55 156 124 364q69 188 187 525h100q-158 -426 -373 -1012h-86q-221 594 -374 1012z" />
<glyph unicode="w" horiz-adv-x="1439" d="M16 1012h99l164 -555l98 -328h4l108 326q21 65 86 258t99 299h90q123 -372 182 -555l109 -332h6l98 334l164 553h98l-317 -1012h-90q-34 99 -95 281t-85 254l-117 339q-17 -48 -55.5 -163t-59.5 -176q-99 -297 -180 -535h-90z" />
<glyph unicode="x" horiz-adv-x="903" d="M59 0l338 520l-321 494h106l269 -432l266 432h108l-321 -494l340 -520h-107l-286 457l-285 -457h-107z" />
<glyph unicode="y" horiz-adv-x="858" d="M8 1012h101l172 -477q25 -71 74.5 -215t74.5 -216h4q22 64 161.5 461.5t156.5 446.5h94l-443 -1239q-31 -90 -93.5 -136.5t-139.5 -46.5h-43v80h41q52 0 96.5 38.5t65.5 107.5q30 96 57 172q-71 190 -200.5 541t-178.5 483z" />
<glyph unicode="z" horiz-adv-x="862" d="M72 0v74l614 862h-584v78h686v-76l-610 -858h610v-80h-716z" />
<glyph unicode="{" horiz-adv-x="479" d="M59 578v51q148 37 148 309v276q0 96 43.5 153.5t118.5 57.5h96v-59h-70q-112 0 -112 -192v-275q0 -116 -42.5 -194.5t-95.5 -98.5v-2q57 -19 97.5 -93.5t40.5 -186.5v-295q0 -193 112 -193h70v-59h-96q-75 0 -119.5 57.5t-44.5 151.5v286q0 140 -31 212.5t-115 93.5z" />
<glyph unicode="|" horiz-adv-x="356" d="M147 -332v1798h70v-1798h-70z" />
<glyph unicode="}" horiz-adv-x="479" d="M57 -164h70q113 0 113 193v295q0 113 39.5 187.5t97.5 92.5v2q-53 19 -95 97.5t-42 195.5v275q0 38 -3 65t-13.5 59.5t-34.5 50t-62 17.5h-70v57h95q79 0 121 -57t42 -152v-276q0 -272 148 -309v-51q-84 -21 -115 -93.5t-31 -212.5v-286q0 -94 -44 -151.5t-119 -57.5h-97 v59z" />
<glyph unicode="~" d="M92 518q95 133 232 133q55 0 167 -51t156 -51q41 0 72 23.5t72 76.5l69 -49q-91 -139 -215 -139q-47 0 -162 51t-164 51q-47 0 -83.5 -22.5t-77.5 -69.5z" />
<glyph unicode="&#xa1;" horiz-adv-x="434" d="M164 879v122h110v-122h-110zM172 -424l12 1038h68l12 -1038h-92z" />
<glyph unicode="&#xa2;" d="M113 506q0 124 31 220.5t86 156.5t122 93.5t146 43.5v223h57v-219q104 -7 169 -31.5t134 -79.5l-55 -65q-108 94 -248 94v-876q126 0 248 96q9 -12 28.5 -32t28.5 -32q-58 -51 -138.5 -79.5t-166.5 -30.5v-219h-57v219q-63 7 -118.5 29t-105 64t-85 99.5t-56 141 t-20.5 184.5zM203 506q0 -188 76 -299.5t219 -134.5v864q-143 -23 -219 -133t-76 -297z" />
<glyph unicode="&#xa3;" d="M68 621v69h161q-10 61 -55 190.5t-45 204.5q0 144 93 245.5t263 101.5q132 0 219 -42t152 -135l-76 -49q-106 148 -301 148q-42 0 -83.5 -14t-82 -43t-65.5 -84t-25 -128q0 -62 43.5 -191t57.5 -204h307v-69h-301q-2 -161 -36 -291.5t-120 -245.5h711v-84h-815v76 q174 228 174 545h-176z" />
<glyph unicode="&#xa4;" horiz-adv-x="1052" d="M156 328l118 118q-71 100 -71 218q-3 113 78 221l-119 119q14 16 55 57l119 -119q103 78 223 78q110 0 217 -74l119 119q14 -16 55 -57l-119 -119q87 -107 87 -225q0 -116 -78 -224l118 -116q-12 -15 -57 -60l-119 119q-97 -79 -223 -82q-123 3 -227 88l-119 -119 q-7 8 -29 29.5t-28 28.5zM287 664q0 -116 78 -195.5t192 -79.5q117 0 195.5 79.5t78.5 195.5t-78.5 195t-193.5 79q-116 -2 -194 -80.5t-78 -193.5z" />
<glyph unicode="&#xa5;" d="M18 1425h97l362 -747h4l359 747h94q-157 -324 -352 -718h297v-68h-330l-27 -53v-119h357v-70h-357v-397h-88v397h-352v70h352v119q-4 11 -13.5 30.5t-10.5 22.5h-328v68h295q-51 103 -172.5 344.5t-186.5 373.5z" />
<glyph unicode="&#xa6;" horiz-adv-x="356" d="M147 -332v842h70v-842h-70zM147 625v841h70v-841h-70z" />
<glyph unicode="&#xa7;" horiz-adv-x="915" d="M106 -29l54 58q126 -111 278 -111q131 0 208 56.5t77 175.5q0 49 -20.5 88t-63 69.5t-89 52t-116.5 46.5q-182 64 -255 131t-73 186q0 60 31 119.5t86 105.5q-90 86 -90 197q0 132 90 213.5t236 81.5q186 0 315 -107l-53 -69q-117 94 -264 94q-107 0 -172.5 -56 t-65.5 -147q0 -40 18.5 -75t37.5 -55.5t68.5 -46t70 -33.5t83.5 -31q6 -3 9.5 -4t9 -3t10.5 -4q50 -17 91 -35.5t84 -47.5t72 -62.5t48 -80.5t19 -102q0 -139 -105 -231q76 -88 76 -197q0 -137 -98.5 -223t-272.5 -86q-92 0 -184 37.5t-150 95.5zM188 727q0 -32 8.5 -59.5 t26.5 -48.5t36 -36.5t47 -30t49 -23.5t52.5 -21.5t47.5 -18.5q157 -61 213 -94q88 65 88 180q1 42 -14.5 77t-39 60t-65.5 49t-81 40t-99 37q-94 33 -160 69q-49 -35 -79 -83.5t-30 -96.5z" />
<glyph unicode="&#xa8;" horiz-adv-x="987" d="M250 1245v111h110v-111h-110zM637 1245v111h113v-111h-113z" />
<glyph unicode="&#xa9;" horiz-adv-x="1597" d="M106 698q0 203 92 368.5t252 259t355 93.5q147 0 277 -55t223.5 -150.5t147.5 -229.5t54 -286q0 -202 -92 -366.5t-253 -258t-357 -93.5t-356 93.5t-251.5 258t-91.5 366.5zM184 698q0 -134 48 -254t130.5 -206.5t198 -137.5t244.5 -51q130 0 246.5 51t199 137.5 t131 206.5t48.5 254q0 181 -82 330t-225.5 234.5t-317.5 85.5q-172 0 -315 -85.5t-224.5 -234.5t-81.5 -330zM512 567v250q0 131 79.5 220t221.5 89q93 0 163.5 -44t106.5 -121l-69 -35q-27 57 -79.5 92t-119.5 35q-110 0 -168.5 -68.5t-58.5 -171.5v-246 q0 -102 58.5 -171.5t168.5 -69.5q137 0 201 137l71 -33q-36 -82 -108 -129t-166 -47q-147 0 -224 89t-77 224z" />
<glyph unicode="&#xaa;" horiz-adv-x="669" d="M47 760q0 87 58 137.5t171 50.5h250v88q0 72 -45.5 109t-148.5 37q-119 0 -195 -68l-49 49q92 86 244 86q59 0 104.5 -9.5t84 -32t59 -65t20.5 -104.5v-463h-74v80q-39 -42 -101.5 -66t-129.5 -24q-109 0 -178.5 50.5t-69.5 144.5zM119 762q0 -62 50.5 -96.5t137.5 -34.5 q50 0 96.5 12t84.5 46.5t38 86.5v111h-235q-81 0 -126.5 -31t-45.5 -94z" />
<glyph unicode="&#xab;" horiz-adv-x="833" d="M127 449l242 352h90l-236 -352l236 -355h-94zM403 449l242 352h90l-235 -352l235 -355h-92z" />
<glyph unicode="&#xac;" d="M53 535v77h846l-2 -475h-74v398h-770z" />
<glyph unicode="&#xad;" horiz-adv-x="757" d="M109 489v86h540v-86h-540z" />
<glyph unicode="&#xae;" horiz-adv-x="1118" d="M145 1008q0 185 121 308.5t297 123.5q179 0 298.5 -123t119.5 -309q0 -184 -120 -307t-298 -123q-176 0 -297 123.5t-121 306.5zM203 1008q0 -163 102.5 -273t257.5 -110t259 110t104 273t-104 274t-259 111t-257.5 -110.5t-102.5 -274.5zM412 758v499h198 q66 0 108 -36.5t42 -96.5q0 -52 -31 -89t-84 -48l121 -229h-61l-115 223h-125v-223h-53zM465 1030h135q48 0 77.5 24t29.5 70q0 42 -30.5 64t-74.5 22h-137v-180z" />
<glyph unicode="&#xaf;" horiz-adv-x="970" d="M264 1214v84h522v-84h-522z" />
<glyph unicode="&#xb0;" horiz-adv-x="741" d="M121 1182q0 104 73.5 177t176.5 73q107 0 179.5 -72.5t72.5 -177.5q0 -104 -73 -177t-179 -73q-104 0 -177 73t-73 177zM188 1182q0 -77 53.5 -131t129.5 -54q78 0 131 52t53 133q0 77 -54 131.5t-130 54.5t-129.5 -54.5t-53.5 -131.5z" />
<glyph unicode="&#xb1;" d="M59 0v76h842v-76h-842zM59 555v76h381v383h76v-383h381v-76h-381v-387h-76v387h-381z" />
<glyph unicode="&#xb2;" horiz-adv-x="585" d="M25 758v63l385 453q51 63 51 129q0 61 -47 102t-127 41q-62 0 -111.5 -36t-66.5 -95l-76 12q21 84 93.5 134.5t162.5 50.5q116 0 183 -58t67 -149q0 -40 -17 -87t-49 -83l-352 -410h411v-67h-507z" />
<glyph unicode="&#xb3;" horiz-adv-x="579" d="M23 911l73 11q18 -50 61.5 -78.5t108.5 -28.5q83 0 143 50.5t60 129.5q0 82 -50.5 127t-127.5 45h-68v66h58q74 0 124 43t50 113t-51.5 116.5t-133.5 46.5q-51 0 -100.5 -31t-67.5 -83l-73 14q25 74 92 119t153 45q125 0 190.5 -64.5t65.5 -160.5q0 -53 -28.5 -106.5 t-93.5 -82.5q51 -20 83.5 -58t43 -73.5t10.5 -71.5q0 -111 -80 -180t-201 -69q-86 0 -152 37.5t-89 123.5z" />
<glyph unicode="&#xb4;" horiz-adv-x="987" d="M422 1178l160 315l100 -39l-205 -301z" />
<glyph unicode="&#xb5;" horiz-adv-x="1052" d="M145 -410v1426h88v-649q0 -137 85 -215t214 -78q132 0 218 89t86 232v621h86v-1016h-86v164h-7q-48 -90 -133 -132t-182 -42q-85 0 -157 32.5t-119 88.5h-5v-521h-88z" />
<glyph unicode="&#xb6;" horiz-adv-x="1011" d="M57 1108q0 76 22.5 142.5t66.5 119t116 83t164 30.5h530v-86h-127v-1563h-94v1563h-205v-1563h-94v901q-168 0 -273.5 100t-105.5 273z" />
<glyph unicode="&#xb7;" horiz-adv-x="356" d="M119 475v133h121v-133h-121z" />
<glyph unicode="&#xb8;" horiz-adv-x="847" d="M324 -367l20 52q71 -25 139 -25q39 0 78 24t39 72q0 46 -46 74.5t-116 28.5h-8l-20 16l51 156q10 0 30 -1t29 -1q-18 -59 -39 -117q56 -4 96 -21t60 -41t28.5 -47.5t8.5 -48.5q0 -53 -47.5 -100t-139.5 -47q-90 0 -163 26z" />
<glyph unicode="&#xb9;" horiz-adv-x="460" d="M82 1446v80l139 84h72v-852h-76v770z" />
<glyph unicode="&#xba;" horiz-adv-x="692" d="M55 909q0 100 33 178q77 160 260 160q154 0 230 -108q53 -77 53 -228q-3 -155 -47 -227q-73 -119 -244 -119q-120 0 -190 64q-95 79 -95 280zM131 905q0 -103 27 -164q51 -112 186 -112q108 0 164 71q51 67 51 209q0 124 -39 183q-28 42 -73.5 66t-98.5 24 q-120 0 -178 -97q-39 -59 -39 -180z" />
<glyph unicode="&#xbb;" horiz-adv-x="833" d="M129 801h90l242 -352l-240 -355h-90l236 355zM406 94l235 355l-235 352h90l241 -352l-239 -355h-92z" />
<glyph unicode="&#xbc;" horiz-adv-x="1536" d="M178 1262v79l139 84h72v-852h-76v770zM283 -53l870 1523h74l-871 -1523h-73zM788 133v62l332 657h84l-334 -651h330v258h80v-258h80v-68h-80v-133h-80v133h-412z" />
<glyph unicode="&#xbd;" horiz-adv-x="1536" d="M154 1262v79l139 84h72v-852h-76v770zM254 -53l870 1523h74l-870 -1523h-74zM868 0v66l385 452q52 62 52 127q0 61 -47 102t-128 41q-62 0 -111.5 -36t-66.5 -95l-75 15q21 83 93.5 132.5t162.5 49.5q116 0 182.5 -57t66.5 -150q0 -40 -16.5 -86t-48.5 -82l-352 -409h411 v-70h-508z" />
<glyph unicode="&#xbe;" horiz-adv-x="1536" d="M76 727l74 10q37 -106 169 -106q83 0 143 50.5t60 129.5q0 82 -50.5 127t-127.5 45h-68v66h58q74 0 124 42.5t50 112.5t-51 117t-133 47q-51 0 -100.5 -31t-67.5 -84l-74 15q25 74 92.5 119t153.5 45q125 0 190.5 -65t65.5 -161q0 -52 -29 -105.5t-94 -82.5 q51 -20 83.5 -58t43 -73.5t10.5 -71.5q0 -111 -80.5 -180.5t-200.5 -69.5q-86 0 -152 38t-89 124zM377 -53l870 1523h74l-870 -1523h-74zM889 133v62l332 657h84l-334 -651h329v258h80v-258h80v-68h-80v-133h-80v133h-411z" />
<glyph unicode="&#xbf;" horiz-adv-x="878" d="M53 -78q0 89 41 163t113 155q4 4 29.5 32t32 35.5t27.5 32.5t28 37t21.5 35.5t20 41t11 40.5t6.5 45v135h94v-139q0 -98 -71 -197q-21 -30 -72 -85t-88 -97.5t-68 -103.5t-31 -118q0 -35 8 -71t29 -74.5t52.5 -67.5t82.5 -48t115 -19t120.5 28.5t93.5 71.5t60 89.5 t29 86.5l90 -16q-39 -165 -150 -255.5t-255 -90.5q-164 0 -266.5 100.5t-102.5 253.5zM371 879v125h112v-125h-112z" />
<glyph unicode="&#xc0;" horiz-adv-x="1224" d="M29 0l518 1425h100q348 -950 520 -1425h-104l-123 348h-686l-123 -348h-102zM283 432h628l-184 520q-86 238 -127 357h-6q-263 -746 -311 -877zM303 1681l72 78q54 -44 153.5 -123.5t122.5 -97.5q-24 -32 -39 -47z" />
<glyph unicode="&#xc1;" horiz-adv-x="1198" d="M29 0l518 1425h100q348 -950 520 -1425h-104l-123 348h-686l-123 -348h-102zM283 432h628l-184 520q-86 238 -127 357h-6q-263 -746 -311 -877zM537 1538q33 27 129.5 102.5t148.5 118.5q3 -3 72 -78l-309 -190q-6 6 -13 14t-15 18t-13 15z" />
<glyph unicode="&#xc2;" horiz-adv-x="1198" d="M29 0l518 1425h100q348 -950 520 -1425h-104l-123 348h-686l-123 -348h-102zM283 432h628l-184 520q-86 238 -127 357h-6q-263 -746 -311 -877zM297 1536l270 225h74l260 -223l-37 -43q-40 25 -128.5 82.5t-135.5 87.5l-266 -172z" />
<glyph unicode="&#xc3;" horiz-adv-x="1198" d="M29 0l518 1425h100q348 -950 520 -1425h-104l-123 348h-686l-123 -348h-102zM283 432h628l-184 520q-86 238 -127 357h-6q-263 -746 -311 -877zM289 1591q79 133 188 133q45 0 135 -43t123 -43q63 0 117 82l59 -34q-71 -134 -174 -134q-41 0 -131 42t-129 42 q-37 0 -67 -18.5t-64 -58.5z" />
<glyph unicode="&#xc4;" horiz-adv-x="1198" d="M29 0l518 1425h100q348 -950 520 -1425h-104l-123 348h-686l-123 -348h-102zM283 432h628l-184 520q-86 238 -127 357h-6q-263 -746 -311 -877zM356 1552v109h111v-109h-111zM721 1552v109h113v-109h-113z" />
<glyph unicode="&#xc5;" horiz-adv-x="1198" d="M29 0l518 1425h100q348 -950 520 -1425h-104l-123 348h-686l-123 -348h-102zM283 432h628l-184 520q-86 238 -127 357h-6q-263 -746 -311 -877zM412 1647q0 76 53.5 129t130.5 53t131.5 -53t54.5 -129q0 -75 -55 -130t-131 -55t-130 55t-54 130zM469 1647 q0 -54 36.5 -91.5t90.5 -37.5q55 0 92 37.5t37 91.5t-37 91.5t-92 37.5q-54 0 -90.5 -37.5t-36.5 -91.5z" />
<glyph unicode="&#xc6;" horiz-adv-x="1884" d="M8 0l899 1425h908v-88h-766v-571h655v-86h-655v-592h766v-88h-865v379h-598l-239 -379h-105zM408 463h542v870z" />
<glyph unicode="&#xc7;" horiz-adv-x="1081" d="M106 502v426q0 104 31 194.5t90.5 161t155 111.5t215.5 41q156 0 270.5 -72t169.5 -197q-17 -7 -47 -23t-39 -20q-43 100 -135 161t-217 61q-98 0 -175 -34t-125.5 -92.5t-73.5 -134.5t-25 -163v-422q0 -86 25 -162t73.5 -136t126 -95t174.5 -35q128 0 218.5 63.5 t139.5 177.5l86 -41q-53 -129 -167 -205t-269 -79q-1 -3 -24 -76q56 -4 96 -21t59.5 -41t28 -47.5t8.5 -48.5q0 -54 -47 -100.5t-139 -46.5q-91 0 -162 26l18 52q71 -25 140 -25q39 0 77.5 24t38.5 72q0 46 -45 74.5t-114 28.5q-6 0 -11 2t-11 8t-7 6q6 19 17.5 58t17.5 57 q-110 7 -196.5 50.5t-139.5 114t-80 158.5t-27 189z" />
<glyph unicode="&#xc8;" horiz-adv-x="1081" d="M162 0v1425h864v-88h-768v-571h655v-86h-655v-592h768v-88h-864zM340 1683l74 76l276 -221l-41 -45z" />
<glyph unicode="&#xc9;" horiz-adv-x="1081" d="M162 0v1425h864v-88h-768v-571h655v-86h-655v-592h768v-88h-864zM473 1538l277 221l71 -76l-309 -190z" />
<glyph unicode="&#xca;" horiz-adv-x="1081" d="M162 0v1425h864v-88h-768v-571h655v-86h-655v-592h768v-88h-864zM297 1538l268 223h76l260 -221l-37 -43l-264 170l-266 -172z" />
<glyph unicode="&#xcb;" horiz-adv-x="1081" d="M162 0v1425h864v-88h-768v-571h655v-86h-655v-592h768v-88h-864zM352 1552v109h113v-109h-113zM719 1552v109h112v-109h-112z" />
<glyph unicode="&#xcc;" horiz-adv-x="434" d="M-78 1683l74 76l276 -221l-41 -45zM170 0v1425h94v-1425h-94z" />
<glyph unicode="&#xcd;" horiz-adv-x="434" d="M170 0v1425h94v-1425h-94zM182 1538l277 221l71 -76l-309 -190z" />
<glyph unicode="&#xce;" horiz-adv-x="552" d="M-53 1538l270 223h76l258 -221l-37 -43l-264 170l-266 -172zM199 0v1425h94v-1425h-94z" />
<glyph unicode="&#xcf;" horiz-adv-x="434" d="M-18 1552v109h112v-109h-112zM170 0v1425h94v-1425h-94zM348 1552v109h111v-109h-111z" />
<glyph unicode="&#xd0;" horiz-adv-x="1241" d="M27 723v74h135v628h459q333 0 458 -258q31 -69 41 -170.5t10 -257.5q0 -180 -9 -285t-40 -180q-65 -148 -186 -211t-303 -63h-430v723h-135zM258 88h348q118 0 203 34.5t133 100t70 148.5t22 190v293q0 134 -29.5 229t-87.5 150t-134 79.5t-177 24.5h-348v-540h307v-74 h-307v-635z" />
<glyph unicode="&#xd1;" horiz-adv-x="1357" d="M164 0v1425h98l529 -794q190 -288 309 -473q2 0 2 2v1265h94v-1425h-96l-535 803q-233 351 -303 461l-2 -2v-1262h-96zM383 1591q79 133 188 133q45 0 135 -43t123 -43q63 0 117 82l60 -34q-71 -134 -175 -134q-41 0 -131 42t-129 42q-37 0 -67 -18.5t-64 -58.5z" />
<glyph unicode="&#xd2;" horiz-adv-x="1169" d="M92 504v424q0 104 31 194.5t91 161t155.5 111.5t216.5 41q225 0 356 -141.5t131 -366.5v-424q0 -238 -131 -378t-356 -140q-123 0 -219 41.5t-155 113.5t-89.5 164t-30.5 199zM190 500q0 -85 25.5 -161t73.5 -135.5t125 -94.5t174 -35q178 0 282.5 120.5t104.5 313.5v416 q0 184 -104 303t-283 119q-97 0 -174 -34t-125 -92.5t-73.5 -134t-25.5 -161.5v-424zM367 1683l73 76l277 -221l-39 -45z" />
<glyph unicode="&#xd3;" horiz-adv-x="1169" d="M92 504v424q0 104 31 194.5t91 161t155.5 111.5t216.5 41q225 0 356 -141.5t131 -366.5v-424q0 -238 -131 -378t-356 -140q-123 0 -219 41.5t-155 113.5t-89.5 164t-30.5 199zM190 500q0 -85 25.5 -161t73.5 -135.5t125 -94.5t174 -35q178 0 282.5 120.5t104.5 313.5v416 q0 184 -104 303t-283 119q-97 0 -174 -34t-125 -92.5t-73.5 -134t-25.5 -161.5v-424zM492 1538l276 221l74 -76l-312 -190z" />
<glyph unicode="&#xd4;" horiz-adv-x="1169" d="M92 504v424q0 104 31 194.5t91 161t155.5 111.5t216.5 41q225 0 356 -141.5t131 -366.5v-424q0 -238 -131 -378t-356 -140q-123 0 -219 41.5t-155 113.5t-89.5 164t-30.5 199zM190 500q0 -85 25.5 -161t73.5 -135.5t125 -94.5t174 -35q178 0 282.5 120.5t104.5 313.5v416 q0 184 -104 303t-283 119q-97 0 -174 -34t-125 -92.5t-73.5 -134t-25.5 -161.5v-424zM283 1538l268 223h76l258 -221l-37 -43l-264 170l-267 -172z" />
<glyph unicode="&#xd5;" horiz-adv-x="1169" d="M92 504v424q0 104 31 194.5t91 161t155.5 111.5t216.5 41q225 0 356 -141.5t131 -366.5v-424q0 -238 -131 -378t-356 -140q-123 0 -219 41.5t-155 113.5t-89.5 164t-30.5 199zM190 500q0 -85 25.5 -161t73.5 -135.5t125 -94.5t174 -35q178 0 282.5 120.5t104.5 313.5v416 q0 184 -104 303t-283 119q-97 0 -174 -34t-125 -92.5t-73.5 -134t-25.5 -161.5v-424zM268 1591q79 133 189 133q45 0 135 -43t123 -43q62 0 116 82l60 -34q-71 -134 -174 -134q-41 0 -131 42t-129 42q-37 0 -67 -18.5t-64 -58.5z" />
<glyph unicode="&#xd6;" horiz-adv-x="1169" d="M92 504v424q0 104 31 194.5t91 161t155.5 111.5t216.5 41q225 0 356 -141.5t131 -366.5v-424q0 -238 -131 -378t-356 -140q-123 0 -219 41.5t-155 113.5t-89.5 164t-30.5 199zM190 500q0 -85 25.5 -161t73.5 -135.5t125 -94.5t174 -35q178 0 282.5 120.5t104.5 313.5v416 q0 184 -104 303t-283 119q-97 0 -174 -34t-125 -92.5t-73.5 -134t-25.5 -161.5v-424zM342 1554v109h113v-109h-113zM709 1554v109h110v-109h-110z" />
<glyph unicode="&#xd7;" horiz-adv-x="1013" d="M135 229l328 330l-320 322l54 53l321 -322l326 326l51 -53l-326 -326l324 -323l-53 -54l-324 322l-328 -328z" />
<glyph unicode="&#xd8;" horiz-adv-x="1169" d="M84 31l98 147q-90 133 -90 326v424q0 104 31 194.5t91 161t155.5 111.5t216.5 41q210 0 342 -129l84 127l55 -37l-92 -144q98 -135 98 -325v-424q0 -238 -131 -378t-356 -140q-230 0 -359 139l-88 -131zM190 500q0 -128 56 -228l626 951q-113 123 -284 123 q-97 0 -174 -34t-125 -92.5t-73.5 -134t-25.5 -161.5v-424zM283 211q111 -137 305 -137q178 0 282.5 120.5t104.5 313.5v416q0 134 -62 239z" />
<glyph unicode="&#xd9;" horiz-adv-x="1241" d="M133 489v936h94v-913q0 -186 108 -310t286 -124q175 0 283 112.5t108 305.5v929h98v-950q0 -219 -136.5 -353t-352.5 -134q-218 0 -353 140t-135 361zM362 1683l72 76l279 -221l-41 -45z" />
<glyph unicode="&#xda;" horiz-adv-x="1241" d="M133 489v936h94v-913q0 -186 108 -310t286 -124q175 0 283 112.5t108 305.5v929h98v-950q0 -219 -136.5 -353t-352.5 -134q-218 0 -353 140t-135 361zM485 1538l279 221l72 -76l-310 -190z" />
<glyph unicode="&#xdb;" horiz-adv-x="1241" d="M133 489v936h94v-913q0 -186 108 -310t286 -124q175 0 283 112.5t108 305.5v929h98v-950q0 -219 -136.5 -353t-352.5 -134q-218 0 -353 140t-135 361zM315 1538l269 223h75l261 -221l-37 -43l-265 170l-266 -172z" />
<glyph unicode="&#xdc;" horiz-adv-x="1241" d="M133 489v936h94v-913q0 -186 108 -310t286 -124q175 0 283 112.5t108 305.5v929h98v-950q0 -219 -136.5 -353t-352.5 -134q-218 0 -353 140t-135 361zM385 1554v109h113v-109h-113zM752 1554v109h110v-109h-110z" />
<glyph unicode="&#xdd;" horiz-adv-x="972" d="M12 1425h101q120 -231 372 -747q77 150 150 303q138 267 223 444h98q-287 -560 -426 -835v-590h-90v590zM369 1538q23 18 122.5 97.5t153.5 123.5l74 -78l-311 -190z" />
<glyph unicode="&#xde;" horiz-adv-x="1136" d="M164 0v1423h96v-295h412q89 0 165.5 -23t140 -70t100 -129t36.5 -191q0 -73 -26.5 -142.5t-76.5 -128.5t-133 -95t-186 -36h-432v-313h-96zM260 401h420q85 0 151 27.5t104 73.5t57.5 101.5t19.5 117.5q0 155 -95.5 237t-244.5 82h-412v-639z" />
<glyph unicode="&#xdf;" horiz-adv-x="1042" d="M147 0v1092q0 177 99 283t280 106q164 0 260.5 -98t96.5 -230q0 -56 -14.5 -111t-55.5 -109.5t-102 -82.5v-4q114 -35 169.5 -139t55.5 -240q0 -230 -101 -348.5t-272 -118.5h-61v76h53q77 0 133.5 31t89.5 86t48.5 124t15.5 152q0 149 -77 241.5t-200 92.5h-33v78h33 q104 0 166 80t62 174q0 49 -15.5 94.5t-46.5 85.5t-86.5 64t-128.5 24q-65 0 -116 -21t-81 -54t-49.5 -77t-26.5 -85t-7 -83v-1083h-89z" />
<glyph unicode="&#xe0;" horiz-adv-x="970" d="M74 276q0 128 84.5 206.5t240.5 78.5h373v146q0 117 -68 176t-225 59q-176 0 -282 -98l-58 61q124 121 342 121q66 0 119.5 -8t103.5 -30t84 -56.5t54 -90.5t20 -130v-711h-90v111h-2q-77 -123 -340 -123q-155 0 -255.5 74t-100.5 214zM160 281q0 -103 75.5 -159 t206.5 -56q43 0 85 5t87.5 20t79.5 38.5t56 63t22 90.5v202h-352q-124 0 -192 -51.5t-68 -152.5zM319 1452q14 5 47 19t52 20l160 -313q-1 -1 -56 -25z" />
<glyph unicode="&#xe1;" horiz-adv-x="970" d="M74 276q0 128 84.5 206.5t240.5 78.5h373v146q0 117 -68 176t-225 59q-176 0 -282 -98l-58 61q124 121 342 121q66 0 119.5 -8t103.5 -30t84 -56.5t54 -90.5t20 -130v-711h-90v111h-2q-77 -123 -340 -123q-155 0 -255.5 74t-100.5 214zM160 281q0 -103 75.5 -159 t206.5 -56q43 0 85 5t87.5 20t79.5 38.5t56 63t22 90.5v202h-352q-124 0 -192 -51.5t-68 -152.5zM477 1178l162 313q15 -5 47 -19t51 -20l-205 -299q-50 22 -55 25z" />
<glyph unicode="&#xe2;" horiz-adv-x="970" d="M74 276q0 128 84.5 206.5t240.5 78.5h373v146q0 117 -68 176t-225 59q-176 0 -282 -98l-58 61q124 121 342 121q66 0 119.5 -8t103.5 -30t84 -56.5t54 -90.5t20 -130v-711h-90v111h-2q-77 -123 -340 -123q-155 0 -255.5 74t-100.5 214zM160 281q0 -103 75.5 -159 t206.5 -56q43 0 85 5t87.5 20t79.5 38.5t56 63t22 90.5v202h-352q-124 0 -192 -51.5t-68 -152.5zM193 1182l268 254h76l258 -254l-43 -41l-258 196q-38 -30 -81 -63t-95.5 -73t-81.5 -62z" />
<glyph unicode="&#xe3;" horiz-adv-x="970" d="M74 276q0 128 84.5 206.5t240.5 78.5h373v146q0 117 -68 176t-225 59q-176 0 -282 -98l-58 61q124 121 342 121q66 0 119.5 -8t103.5 -30t84 -56.5t54 -90.5t20 -130v-711h-90v111h-2q-77 -123 -340 -123q-155 0 -255.5 74t-100.5 214zM160 281q0 -103 75.5 -159 t206.5 -56q43 0 85 5t87.5 20t79.5 38.5t56 63t22 90.5v202h-352q-124 0 -192 -51.5t-68 -152.5zM217 1243q79 133 189 133q45 0 135 -43t123 -43q62 0 116 82l60 -35q-71 -133 -174 -133q-42 0 -132 42t-128 42q-66 0 -132 -78z" />
<glyph unicode="&#xe4;" horiz-adv-x="970" d="M74 276q0 128 84.5 206.5t240.5 78.5h373v146q0 117 -68 176t-225 59q-176 0 -282 -98l-58 61q124 121 342 121q66 0 119.5 -8t103.5 -30t84 -56.5t54 -90.5t20 -130v-711h-90v111h-2q-77 -123 -340 -123q-155 0 -255.5 74t-100.5 214zM160 281q0 -103 75.5 -159 t206.5 -56q43 0 85 5t87.5 20t79.5 38.5t56 63t22 90.5v202h-352q-124 0 -192 -51.5t-68 -152.5zM258 1245v109h111v-109h-111zM645 1245v109h111v-109h-111z" />
<glyph unicode="&#xe5;" horiz-adv-x="970" d="M74 276q0 128 84.5 206.5t240.5 78.5h373v146q0 117 -68 176t-225 59q-176 0 -282 -98l-58 61q124 121 342 121q66 0 119.5 -8t103.5 -30t84 -56.5t54 -90.5t20 -130v-711h-90v111h-2q-77 -123 -340 -123q-155 0 -255.5 74t-100.5 214zM160 281q0 -103 75.5 -159 t206.5 -56q43 0 85 5t87.5 20t79.5 38.5t56 63t22 90.5v202h-352q-124 0 -192 -51.5t-68 -152.5zM317 1317q0 76 54.5 129t130.5 53q77 0 131.5 -53t54.5 -129q0 -75 -55 -129.5t-131 -54.5q-75 0 -130 54.5t-55 129.5zM375 1317q0 -54 36.5 -91.5t90.5 -37.5q55 0 92 37.5 t37 91.5t-37 91.5t-92 37.5q-54 0 -90.5 -37.5t-36.5 -91.5z" />
<glyph unicode="&#xe6;" horiz-adv-x="1656" d="M74 268q0 129 84.5 211t240.5 82h373v154q0 110 -66.5 168.5t-201.5 58.5q-191 0 -301 -92l-56 63q69 60 162.5 86.5t186.5 26.5q139 0 229 -46.5t119 -158.5q28 56 67.5 97.5t85 64t91 33t94.5 10.5q100 0 178 -36.5t126 -100t72.5 -146.5t24.5 -180v-76h-723 q0 -92 18 -165.5t56.5 -133t108 -92.5t165.5 -33q130 0 244 87l55 -66q-121 -96 -295 -96q-282 0 -381 217q-39 -92 -138 -154.5t-263 -62.5q-156 0 -256 70.5t-100 209.5zM162 281q0 -103 74.5 -159t205.5 -56q144 0 237 69t93 197v155h-348q-117 0 -189.5 -53.5 t-72.5 -152.5zM864 561h627q-7 189 -87.5 286t-219.5 97q-145 0 -228.5 -100.5t-91.5 -282.5z" />
<glyph unicode="&#xe7;" horiz-adv-x="847" d="M61 506q0 111 25.5 200t68 148t101 98.5t122.5 56.5t134 17q165 0 295 -113l-55 -65q-46 41 -106.5 67.5t-123.5 26.5q-178 0 -275 -112.5t-97 -323.5q0 -212 96.5 -326t275.5 -114q118 0 230 96q10 -13 30.5 -35t26.5 -29q-129 -110 -297 -110h-6l-25 -76q56 -4 96 -21 t60 -41t28.5 -47.5t8.5 -48.5q0 -53 -47.5 -100t-139.5 -47q-90 0 -163 26l20 52q71 -25 139 -25q42 0 79.5 25.5t37.5 70.5q0 46 -46 74.5t-116 28.5q-8 0 -16.5 7t-11.5 9l39 117q-80 8 -147.5 41t-122.5 93t-86.5 157.5t-31.5 222.5z" />
<glyph unicode="&#xe8;" horiz-adv-x="970" d="M88 502q0 119 24.5 212t64.5 150.5t94.5 95t109.5 52t115 14.5q97 0 174.5 -35.5t126.5 -98t74.5 -146.5t25.5 -183v-69h-723q-1 -72 9 -134t36 -117.5t65.5 -94.5t100 -62t137.5 -23q61 0 126 22.5t118 61.5l55 -61q-123 -100 -295 -100q-47 0 -89 6t-87 22t-82.5 41 t-71.5 65.5t-57.5 93t-37 126t-13.5 162.5zM176 567h627q-6 188 -85.5 283.5t-219.5 95.5q-145 0 -229 -99t-93 -280zM324 1454l98 39l162 -315l-58 -25z" />
<glyph unicode="&#xe9;" horiz-adv-x="970" d="M88 502q0 119 24.5 212t64.5 150.5t94.5 95t109.5 52t115 14.5q97 0 174.5 -35.5t126.5 -98t74.5 -146.5t25.5 -183v-69h-723q-1 -72 9 -134t36 -117.5t65.5 -94.5t100 -62t137.5 -23q61 0 126 22.5t118 61.5l55 -61q-123 -100 -295 -100q-47 0 -89 6t-87 22t-82.5 41 t-71.5 65.5t-57.5 93t-37 126t-13.5 162.5zM176 567h627q-6 188 -85.5 283.5t-219.5 95.5q-145 0 -229 -99t-93 -280zM428 1178l160 315l100 -39l-205 -301z" />
<glyph unicode="&#xea;" horiz-adv-x="970" d="M88 502q0 119 24.5 212t64.5 150.5t94.5 95t109.5 52t115 14.5q97 0 174.5 -35.5t126.5 -98t74.5 -146.5t25.5 -183v-69h-723q-1 -72 9 -134t36 -117.5t65.5 -94.5t100 -62t137.5 -23q61 0 126 22.5t118 61.5l55 -61q-123 -100 -295 -100q-47 0 -89 6t-87 22t-82.5 41 t-71.5 65.5t-57.5 93t-37 126t-13.5 162.5zM176 567h627q-6 188 -85.5 283.5t-219.5 95.5q-145 0 -229 -99t-93 -280zM193 1182l270 254h76l258 -252l-43 -43l-258 198l-260 -200z" />
<glyph unicode="&#xeb;" horiz-adv-x="970" d="M88 502q0 119 24.5 212t64.5 150.5t94.5 95t109.5 52t115 14.5q97 0 174.5 -35.5t126.5 -98t74.5 -146.5t25.5 -183v-69h-723q-1 -72 9 -134t36 -117.5t65.5 -94.5t100 -62t137.5 -23q61 0 126 22.5t118 61.5l55 -61q-123 -100 -295 -100q-47 0 -89 6t-87 22t-82.5 41 t-71.5 65.5t-57.5 93t-37 126t-13.5 162.5zM176 567h627q-6 188 -85.5 283.5t-219.5 95.5q-145 0 -229 -99t-93 -280zM256 1245v111h113v-111h-113zM643 1245v111h113v-111h-113z" />
<glyph unicode="&#xec;" horiz-adv-x="409" d="M-20 1454l98 39l162 -315l-56 -25zM150 0v1016h94v-1016h-94z" />
<glyph unicode="&#xed;" horiz-adv-x="409" d="M150 0v1016h94v-1016h-94zM170 1178l162 315l98 -39l-203 -301z" />
<glyph unicode="&#xee;" horiz-adv-x="522" d="M-41 1182l268 254h76l260 -252l-45 -43l-256 198l-260 -200zM215 0v1016h94v-1016h-94z" />
<glyph unicode="&#xef;" horiz-adv-x="417" d="M-41 1245v111h113v-111h-113zM164 0v1016h94v-1016h-94zM346 1245v111h113v-111h-113z" />
<glyph unicode="&#xf0;" horiz-adv-x="1005" d="M86 485q0 227 113 357q117 133 303 133q108 0 199.5 -58.5t123.5 -154.5h6q0 298 -86 440l-149 -106l-31 45l150 106q-100 137 -316 164l15 76q248 -17 372 -184l152 108l35 -47l-154 -109q60 -102 80.5 -240.5t20.5 -334.5q0 -110 -6 -195t-34 -189t-77 -169 q-107 -139 -314 -139q-193 0 -290 112q-113 125 -113 385zM176 479q0 -193 86 -307q81 -104 234 -104q150 0 239 122q82 110 82 299q0 197 -90 302q-89 102 -227 102q-161 0 -250 -123q-74 -103 -74 -291z" />
<glyph unicode="&#xf1;" horiz-adv-x="1028" d="M125 0v1014h88v-174h4q48 91 140 137.5t188 46.5q170 0 263 -90t93 -254v-680h-88v649q0 142 -72.5 216.5t-214.5 74.5q-133 0 -223 -91.5t-90 -234.5v-614h-88zM182 1243q79 133 189 133q45 0 135 -43t123 -43q62 0 116 82l60 -35q-71 -133 -174 -133q-41 0 -131 42 t-129 42q-37 0 -67 -19t-64 -59z" />
<glyph unicode="&#xf2;" horiz-adv-x="1001" d="M90 510q0 248 111 379q114 137 309 137q108 0 192.5 -42.5t135.5 -121.5q71 -115 71 -362q0 -243 -100 -373q-109 -139 -315 -139q-189 0 -291 114q-113 128 -113 408zM180 506q0 -219 88 -332q83 -106 232 -106q157 0 243 125q37 52 56.5 122t19.5 187q0 209 -55 301 q-40 68 -107 105.5t-151 37.5q-148 0 -238 -115q-43 -55 -65.5 -130.5t-22.5 -194.5zM315 1454l99 39l161 -315l-57 -25z" />
<glyph unicode="&#xf3;" horiz-adv-x="1001" d="M90 510q0 248 111 379q114 137 309 137q108 0 192.5 -42.5t135.5 -121.5q71 -115 71 -362q0 -243 -100 -373q-109 -139 -315 -139q-189 0 -291 114q-113 128 -113 408zM180 506q0 -219 88 -332q83 -106 232 -106q157 0 243 125q37 52 56.5 122t19.5 187q0 209 -55 301 q-40 68 -107 105.5t-151 37.5q-148 0 -238 -115q-43 -55 -65.5 -130.5t-22.5 -194.5zM461 1178l162 315l98 -39l-203 -301z" />
<glyph unicode="&#xf4;" horiz-adv-x="1001" d="M90 510q0 248 111 379q114 137 309 137q108 0 192.5 -42.5t135.5 -121.5q71 -115 71 -362q0 -243 -100 -373q-109 -139 -315 -139q-189 0 -291 114q-113 128 -113 408zM180 506q0 -219 88 -332q83 -106 232 -106q157 0 243 125q37 52 56.5 122t19.5 187q0 209 -55 301 q-40 68 -107 105.5t-151 37.5q-148 0 -238 -115q-43 -55 -65.5 -130.5t-22.5 -194.5zM199 1182l268 254h76l258 -252l-43 -43l-258 198l-258 -200z" />
<glyph unicode="&#xf5;" horiz-adv-x="1001" d="M90 510q0 248 111 379q114 137 309 137q108 0 192.5 -42.5t135.5 -121.5q71 -115 71 -362q0 -243 -100 -373q-109 -139 -315 -139q-189 0 -291 114q-113 128 -113 408zM180 506q0 -219 88 -332q83 -106 232 -106q157 0 243 125q37 52 56.5 122t19.5 187q0 209 -55 301 q-40 68 -107 105.5t-151 37.5q-148 0 -238 -115q-43 -55 -65.5 -130.5t-22.5 -194.5zM193 1243q79 133 188 133q45 0 135 -43t123 -43q63 0 117 82l59 -35q-71 -133 -174 -133q-41 0 -131 42t-129 42q-37 0 -67 -19t-64 -59z" />
<glyph unicode="&#xf6;" horiz-adv-x="1001" d="M90 510q0 248 111 379q114 137 309 137q108 0 192.5 -42.5t135.5 -121.5q71 -115 71 -362q0 -243 -100 -373q-109 -139 -315 -139q-189 0 -291 114q-113 128 -113 408zM180 506q0 -219 88 -332q83 -106 232 -106q157 0 243 125q37 52 56.5 122t19.5 187q0 209 -55 301 q-40 68 -107 105.5t-151 37.5q-148 0 -238 -115q-43 -55 -65.5 -130.5t-22.5 -194.5zM248 1245v111h112v-111h-112zM635 1245v111h113v-111h-113z" />
<glyph unicode="&#xf7;" d="M51 535v75h852v-75h-852zM403 225q0 33 24.5 54.5t57.5 21.5q31 0 53.5 -21t22.5 -55q0 -32 -23 -55t-55 -23q-34 0 -57 23t-23 55zM403 918q0 34 23 54.5t57 20.5q32 0 55 -20.5t23 -54.5q0 -32 -23 -56t-55 -24q-33 0 -56.5 23.5t-23.5 56.5z" />
<glyph unicode="&#xf8;" horiz-adv-x="1001" d="M90 510q0 248 111 379q114 137 309 137q163 0 268 -94l82 108l49 -36l-88 -119q3 -3 5.5 -6.5t6 -8.5t5.5 -8q71 -115 71 -362q0 -243 -100 -373q-109 -139 -315 -139q-171 0 -273 94l-76 -102l-49 36l84 113q-90 128 -90 381zM180 506q0 -190 62 -295l481 645 q-87 90 -217 90q-148 0 -238 -115q-43 -55 -65.5 -130.5t-22.5 -194.5zM281 160q80 -92 219 -92q157 0 243 125q37 52 56.5 122t19.5 187q0 209 -55 301l-2 2z" />
<glyph unicode="&#xf9;" horiz-adv-x="1058" d="M133 332v684h90v-649q0 -139 82.5 -217t216.5 -78q132 0 217.5 90t85.5 233v621h86v-1016h-88v164h-4q-48 -90 -133.5 -132t-181.5 -42q-160 0 -265.5 93t-105.5 249zM346 1454l100 39l160 -315l-55 -25z" />
<glyph unicode="&#xfa;" horiz-adv-x="1058" d="M133 332v684h90v-649q0 -139 82.5 -217t216.5 -78q132 0 217.5 90t85.5 233v621h86v-1016h-88v164h-4q-48 -90 -133.5 -132t-181.5 -42q-160 0 -265.5 93t-105.5 249zM496 1178l159 315l101 -39l-205 -301z" />
<glyph unicode="&#xfb;" horiz-adv-x="1058" d="M133 332v684h90v-649q0 -139 82.5 -217t216.5 -78q132 0 217.5 90t85.5 233v621h86v-1016h-88v164h-4q-48 -90 -133.5 -132t-181.5 -42q-160 0 -265.5 93t-105.5 249zM223 1182l269 254h75l260 -252l-45 -43l-256 198l-260 -200z" />
<glyph unicode="&#xfc;" horiz-adv-x="1058" d="M133 332v684h90v-649q0 -139 82.5 -217t216.5 -78q132 0 217.5 90t85.5 233v621h86v-1016h-88v164h-4q-48 -90 -133.5 -132t-181.5 -42q-160 0 -265.5 93t-105.5 249zM264 1245v111h113v-111h-113zM651 1245v111h113v-111h-113z" />
<glyph unicode="&#xfd;" horiz-adv-x="858" d="M8 1012h101l172 -477q25 -71 74.5 -215t74.5 -216h4q22 64 161.5 461.5t156.5 446.5h94l-443 -1239q-31 -90 -93.5 -136.5t-139.5 -46.5h-43v80h41q52 0 96.5 38.5t65.5 107.5q30 96 57 172q-71 190 -200.5 541t-178.5 483zM381 1178l162 313q15 -5 47 -19t51 -20 l-205 -299q-50 22 -55 25z" />
<glyph unicode="&#xfe;" horiz-adv-x="1017" d="M119 -408v1833h90v-581h2q105 184 311 184q84 0 149.5 -27.5t108.5 -75t71 -115t40 -142t12 -162.5q0 -80 -11 -151t-39 -139t-71 -117t-112.5 -79t-157.5 -30q-109 0 -178.5 46t-122.5 132h-2v-576h-90zM209 512q0 -91 15.5 -166t48.5 -138t92.5 -98.5t140.5 -35.5 q303 0 303 434q0 438 -303 438q-73 0 -128.5 -29t-87 -73t-50.5 -105t-25 -114.5t-6 -112.5z" />
<glyph unicode="&#xff;" horiz-adv-x="858" d="M8 1012h101l172 -477q25 -71 74.5 -215t74.5 -216h4q22 64 161.5 461.5t156.5 446.5h94l-443 -1239q-31 -90 -93.5 -136.5t-139.5 -46.5h-43v80h41q52 0 96.5 38.5t65.5 107.5q30 96 57 172q-71 190 -200.5 541t-178.5 483zM193 1245v109h110v-109h-110zM580 1245v109 h112v-109h-112z" />
<glyph unicode="&#x152;" horiz-adv-x="1617" d="M88 504v424q0 104 31 194.5t90.5 161t155 111.5t215.5 41q71 0 125 -11h858v-88h-768v-571h657v-86h-657v-592h768v-88h-854q-72 -14 -129 -14q-123 0 -219 41.5t-154.5 113.5t-88.5 164t-30 199zM184 500q0 -85 25.5 -161t73.5 -135.5t125 -94.5t174 -35q60 0 116 16 v1243q-57 13 -116 13q-97 0 -174 -34t-125 -92.5t-73.5 -134t-25.5 -161.5v-424z" />
<glyph unicode="&#x153;" horiz-adv-x="1697" d="M84 510q0 300 147 422q113 92 267 92q221 0 329 -164q27 -45 37 -94q26 72 67 124t90.5 81t100 42t105.5 13q98 0 175.5 -35.5t126 -98.5t74 -146.5t25.5 -182.5v-69h-723q0 -137 33 -224q38 -98 119 -150t192 -52q141 0 248 82l55 -66q-121 -96 -295 -96 q-307 0 -395 258q-28 -94 -86 -152q-103 -106 -287 -106q-169 0 -272 92q-67 68 -100 170t-33 260zM174 506q0 -173 41 -262q38 -84 109 -131t170 -47q138 0 223 88q50 54 71 125q25 79 25 223q0 211 -57 301q-40 68 -107 104.5t-153 36.5q-138 0 -224 -92q-50 -58 -74 -138 t-24 -208zM907 567h627q-6 187 -86 282t-219 95q-145 0 -229 -98t-93 -279z" />
<glyph unicode="&#x178;" horiz-adv-x="972" d="M12 1425h101q120 -231 372 -747q77 150 150 303q138 267 223 444h98q-287 -560 -426 -835v-590h-90v590zM266 1552v109h111v-109h-111zM631 1552v109h112v-109h-112z" />
<glyph unicode="&#x2c6;" horiz-adv-x="987" d="M193 1182l270 254h76l258 -252l-43 -43l-258 198l-260 -200z" />
<glyph unicode="&#x2dc;" horiz-adv-x="987" d="M195 1243q79 133 188 133q45 0 135 -43t123 -43q63 0 117 82l59 -35q-71 -133 -174 -133q-41 0 -131 42t-129 42q-37 0 -67 -19t-64 -59z" />
<glyph unicode="&#x2000;" horiz-adv-x="914" />
<glyph unicode="&#x2001;" horiz-adv-x="1829" />
<glyph unicode="&#x2002;" horiz-adv-x="914" />
<glyph unicode="&#x2003;" horiz-adv-x="1829" />
<glyph unicode="&#x2004;" horiz-adv-x="609" />
<glyph unicode="&#x2005;" horiz-adv-x="457" />
<glyph unicode="&#x2006;" horiz-adv-x="304" />
<glyph unicode="&#x2007;" horiz-adv-x="304" />
<glyph unicode="&#x2008;" horiz-adv-x="228" />
<glyph unicode="&#x2009;" horiz-adv-x="365" />
<glyph unicode="&#x200a;" horiz-adv-x="101" />
<glyph unicode="&#x2010;" horiz-adv-x="757" d="M109 489v86h540v-86h-540z" />
<glyph unicode="&#x2011;" horiz-adv-x="757" d="M109 489v86h540v-86h-540z" />
<glyph unicode="&#x2012;" horiz-adv-x="757" d="M109 489v86h540v-86h-540z" />
<glyph unicode="&#x2013;" horiz-adv-x="1009" d="M41 498v88h928v-88h-928z" />
<glyph unicode="&#x2014;" horiz-adv-x="2033" d="M41 498v88h1952v-88h-1952z" />
<glyph unicode="&#x2018;" horiz-adv-x="387" d="M129 1133v139q12 26 40.5 94.5t45.5 106.5h57l-53 -205h33v-135h-123z" />
<glyph unicode="&#x2019;" horiz-adv-x="387" d="M129 1135l53 204h-32v136h122v-140l-86 -200h-57z" />
<glyph unicode="&#x201a;" horiz-adv-x="356" d="M100 -205l54 205h-33v135h117v-137l-86 -203h-52z" />
<glyph unicode="&#x201c;" horiz-adv-x="514" d="M82 1133v139q16 37 44 105t40 96h59l-53 -205h33v-135h-123zM287 1133v139q12 26 40.5 94.5t45.5 106.5h57l-53 -205h33v-135h-123z" />
<glyph unicode="&#x201d;" horiz-adv-x="514" d="M98 1133l54 204h-33v136h123v-140q-11 -25 -40 -93.5t-46 -106.5h-58zM303 1133l53 204h-32v136h122v-140q-16 -37 -44.5 -105.5t-39.5 -94.5h-59z" />
<glyph unicode="&#x201e;" horiz-adv-x="716" d="M129 -205l53 205h-32v135h114v-137l-84 -203h-51zM432 -205l53 203h-32v135h116v-137l-86 -201h-51z" />
<glyph unicode="&#x2022;" horiz-adv-x="724" d="M180 543q0 78 55.5 134t133.5 56q76 0 131 -56t55 -134t-54.5 -133.5t-131.5 -55.5q-78 0 -133.5 55.5t-55.5 133.5z" />
<glyph unicode="&#x2026;" horiz-adv-x="1177" d="M123 0v133h123v-133h-123zM532 0v133h123v-133h-123zM924 0v133h123v-133h-123z" />
<glyph unicode="&#x202f;" horiz-adv-x="365" />
<glyph unicode="&#x2039;" horiz-adv-x="565" d="M129 449l242 352h90l-234 -352l234 -355h-92z" />
<glyph unicode="&#x203a;" horiz-adv-x="565" d="M129 94l233 355l-233 352h90l242 -352l-240 -355h-92z" />
<glyph unicode="&#x205f;" horiz-adv-x="457" />
<glyph unicode="&#x20ac;" d="M27 578v69h82v139h-82v70h82v80q0 104 28 193.5t81 159t138.5 109.5t192.5 40q134 0 235.5 -63t159.5 -177l-86 -39q-50 94 -129.5 144.5t-179.5 50.5q-88 0 -156.5 -35.5t-108.5 -96t-60.5 -134.5t-20.5 -158v-74h497v-70h-497v-139h502v-69h-502v-89q0 -66 13 -126.5 t40.5 -114.5t67.5 -94t98 -63t127 -23q110 0 185 52.5t130 155.5l80 -36q-121 -254 -395 -254q-110 0 -195.5 40.5t-138 111.5t-79.5 163t-27 199v78h-82z" />
<glyph unicode="&#x2122;" horiz-adv-x="1650" d="M82 1354v71h563v-71h-246v-717h-71v717h-246zM768 637v786h72l295 -573q41 76 159.5 308t135.5 265h65v-786h-70l-2 625l-262 -508h-57l-264 508v-625h-72z" />
<glyph unicode="&#x25fc;" horiz-adv-x="1013" d="M0 0v1014h1014v-1014h-1014z" />
</font>
</defs>
</svg>
